Правила форума

  • В этом разделе создание новых тем Запрещено.
  • Для создания новых тем пользуйтесь Корневым разделом DVD и HD фильмы.
Начать новую темуОтветить на тему  [ Сообщений: 3 ] 
Торрент файл
Размер: 4.36 GB • Зарегистрирован: 5 лет 10 месяцев • Статус: Проверено
Скачан: 64 раза • Желающих скачать: 0 • Поблагодарили: 8 раз
 Раздают: 0  |  0 KB/s  ]   Качают: 0  |  0 KB/s  ] 
 Полного источника не было 1 год 10 месяцев 
Сообщения
 Добавлено: 2011-02-01 08:17
Аватара пользователя
Стаж: 6 лет
Возраст: 26
Сообщений: 113
Спасибок: 691
Золото дураков / Fool's Gold
«В любви все средства хороши»

Изображение


Год выпуска: 2008
Страна: США, Warner Bros. Pictures / De Line Pictures
Жанр: Комедия, Мелодрама, Приключения
Продолжительность: 01:52:26
Перевод: Дублированное
Режиссёр: Энди Теннант
Сценарист: Джон Клафлин, Дэниэл Зелман, Энди Теннант
Продюсер: Дональд Де Лайн, Джим Дайер, Берни Голдманн
Оператор: Дон Бёрджесс
Композитор: Джордж Фентон
В ролях: Мэттью МакКонахи, Кейт Хадсон, Дональд Сазерленд, Алексис Дзена, Ивен Бремнер, Рэй Уинстон, Кевин Харт, Мальколм-Ямал Уорнер, Брайан Хукс, Дэвид Робертс, Адам ЛеФевр, Роэн Никол, Роджер Скиберрас
Описание: Бенджамин Финнеган уже не первый год охотится за сокровищами. И вот, похоже, фортуна повернулась к нему лицом: 40 королевских сундуков с драгоценностями, которые затонули в 1715 году и которые он ищет чуть ли не с того самого дня, наконец-то почти у него в руках! Местонахождение клада капельку прояснилось, осталось только нырнуть и найти. Проблема в том, что желающих найти — море…
Изображение 6.7/10 (7,430 votes)
Изображение 5.4/10 (21,127 votes)

Релиз Группы: Изображение

Раздача Группы: Изображение

Качество: BDRip, 720p
Формат: MKV
Видео: 4530 kb/s, 1280x532
Аудио #1: Russian: AC3, 384 kb/s (6 ch)
Аудио #2: English: AC3, 640 kb/s (6 ch)
Субтитры: Russian, English

Изображение

Mediainfo
Общее
Уникальный идентификатор : 213143302909414479469608676836002742439 (0xA059E82DFFA8FEB28921EE845E87C0A7)
Полное имя : E:\Загрузки с Utorrent\Fool's.Gold.2008.720p.mkv
Формат : Matroska
Размер файла : 4,36 Гбайт
Продолжительность : 1 ч. 52 м.
Общий поток : 5556 Кбит/сек
Название фильма : HANSMER
Дата кодирования : UTC 2011-01-29 19:14:48
Программа кодирования : mkvmerge v4.4.0 ('Die Wiederkehr') сборка от Oct 31 2010 21:52:48
Библиотека кодирования : libebml v1.0.0 + libmatroska v1.0.0

Видео
Идентификатор : 1
Формат : AVC
Формат/Информация : Advanced Video Codec
Профиль формата : High@L4.1
Параметр CABAC формата : Да
Параметр ReFrames формата : 11 кадры
Идентификатор кодека : V_MPEG4/ISO/AVC
Продолжительность : 1 ч. 52 м.
Битрейт : 4530 Кбит/сек
Ширина : 1280 пикс.
Высота : 532 пикс.
Соотношение сторон : 2,40:1
Частота кадров : 23,976 кадр/сек
Цветовое пространство : YUV
Подвыборка цветности : 4:2:0
Битовая глубина : 8 бит
Тип развёртки : Прогрессивная
Бит/(Пиксели*Кадры) : 0.277
Размер потока : 3,47 Гбайт (80%)
Заголовок : Fool's.Gold.2008.Blu-ray.720p.x264
Библиотека кодирования : x264 core 112 r1867 22bfd31
Настройки программы : cabac=1 / ref=11 / deblock=1:-3:-3 / analyse=0x3:0x113 / me=esa / subme=10 / psy=1 / psy_rd=1.00:0.00 / mixed_ref=1 / me_range=32 / chroma_me=1 / trellis=2 / 8x8dct=1 / cqm=0 / deadzone=21,11 / fast_pskip=0 / chroma_qp_offset=-2 / threads=12 / sliced_threads=0 / nr=0 / decimate=1 / interlaced=0 / constrained_intra=0 / bframes=10 / b_pyramid=2 / b_adapt=2 / b_bias=0 / direct=3 / weightb=1 / open_gop=0 / weightp=2 / keyint=250 / keyint_min=23 / scenecut=40 / intra_refresh=0 / rc_lookahead=60 / rc=2pass / mbtree=0 / bitrate=4530 / ratetol=1.0 / qcomp=0.70 / qpmin=10 / qpmax=51 / qpstep=4 / cplxblur=20.0 / qblur=0.5 / vbv_maxrate=50000 / vbv_bufsize=62500 / nal_hrd=none / ip_ratio=1.40 / pb_ratio=1.30 / aq=1:1.00
Язык : English
Коэффициенты матрицы : BT.709-5, BT.1361, IEC 61966-2-4 709, SMPTE RP177

Аудио #1
Идентификатор : 2
Формат : AC-3
Формат/Информация : Audio Coding 3
Расширение режима : CM (complete main)
Идентификатор кодека : A_AC3
Продолжительность : 1 ч. 52 м.
Вид битрейта : Постоянный
Битрейт : 384 Кбит/сек
Канал(ы) : 6 канала(ов)
Расположение каналов : Front: L C R, Side: L R, LFE
Частота : 48,0 КГц
Битовая глубина : 16 бит
Метод сжатия : С потерями
Размер потока : 309 Мбайт (7%)
Язык : Russian

Аудио #2
Идентификатор : 3
Формат : AC-3
Формат/Информация : Audio Coding 3
Расширение режима : CM (complete main)
Идентификатор кодека : A_AC3
Продолжительность : 1 ч. 52 м.
Вид битрейта : Постоянный
Битрейт : 640 Кбит/сек
Канал(ы) : 6 канала(ов)
Расположение каналов : Front: L C R, Side: L R, LFE
Частота : 48,0 КГц
Битовая глубина : 16 бит
Метод сжатия : С потерями
Размер потока : 515 Мбайт (12%)
Язык : English

Текст #1
Идентификатор : 4
Формат : UTF-8
Идентификатор кодека : S_TEXT/UTF8
Идентификатор кодека/Информация : UTF-8 Plain Text
Язык : Russian

Текст #2
Идентификатор : 5
Формат : UTF-8
Идентификатор кодека : S_TEXT/UTF8
Идентификатор кодека/Информация : UTF-8 Plain Text
Язык : English

Меню
00:00:00.000 : en:Missing the Boat
00:06:51.411 : en:Imperfect
00:09:28.902 : en:Drop Anchor
00:15:07.573 : en:Dash to Divorce
00:21:36.128 : en:Sticking It to Him
00:25:33.365 : en:Finn's Genius
00:30:55.520 : en:Hat Trick
00:35:23.788 : en:Welcome Aboard
00:38:57.835 : en:Treasure Tale
00:47:10.995 : en:Already Taken
00:51:34.425 : en:Gemma's Turn
00:56:03.026 : en:Not Together
01:00:26.122 : en:For What It's Worth
01:02:48.598 : en:Bigg Bunny Bargaining
01:08:26.936 : en:So Close to the Answer
01:13:28.237 : en:The Aurelia
01:18:46.221 : en:Diary Secrets
01:25:29.291 : en:Half a Getaway
01:28:26.134 : en:Blowing Gold
01:32:18.700 : en:Underwater Rescue
01:36:29.617 : en:Reluctant Passenger
01:39:50.484 : en:Playing Pilot
01:43:28.369 : en:From Crash to Crush
01:46:46.066 : en:The Queen's Dowry
01:48:05.479 : en:End Credits
Свернуть

Скриншоты
Изображение

Изображение

Изображение
Свернуть
Не в сети
Профиль  
 Добавлено: 2011-02-01 22:37 (спустя 14 часов)
Модератор
Аватара пользователя
Стаж: 8 лет 1 месяц
Сообщений: 1991
Спасибок: 129863
Лайков: 20
OxOTHuK52
Больше не используйте красный цвет в описании. Я правлю уже не первый релиз.
_________________
Себе ты можешь не качать, но раздавать другим обязан!
Не в сети
Профиль  
 Добавлено: 2012-08-29 17:28 (спустя 1 год 6 месяцев)
Аватара пользователя
Стаж: 9 лет
Возраст: 29
Сообщений: 43
Спасибок: 520
Такой интересный фильм, а никого на раздаче нет. Ну как так(((
Не в сети
Профиль  
Начать новую темуОтветить на тему  [ Сообщений: 3 ] 
Вы не можете начинать темы
Вы не можете отвечать на сообщения
Вы не можете редактировать свои сообщения
Вы не можете удалять свои сообщения