Правила форума

  • В этом разделе создание новых тем Запрещено.
  • Для создания новых тем пользуйтесь Корневым разделом DVD и HD фильмы.
Начать новую темуОтветить на тему  [ Сообщений: 2 ] 
Торрент файл
Размер: 8.25 GB • Зарегистрирован: 4 года 1 месяц • Статус: Проверено
Скачан: 30 раз • Желающих скачать: 0 • Поблагодарили: 8 раз
 Раздают: 0  |  0 KB/s  ]   Качают: 0  |  0 KB/s  ] 
 Полного источника не было 1 год 1 месяц 
Сообщения
 Добавлено: 2012-10-26 08:34
Top-releaser
Аватара пользователя
Стаж: 6 лет 7 месяцев
Сообщений: 2078
Спасибок: 3229
Лайков: 9
Изображение

Золото дураков
Fool's Gold


Год выпуска: 2008
Страна: США
Слоган: «В любви все средства хороши»
Жанр: мелодрама, комедия, приключения
Продолжительность: 01:52:26
Перевод: Профессиональный (полное дублирование)
Режиссер: Энди Теннант
Сценарий: Джон Клафлин, Дэниэл Зелман, Энди Теннант
Продюсер: Дональд Де Лайн, Берни Голдманн, Джон Клейн, Джим Дайер, Стивен Джонс
Оператор: Дон Бёрджесс
Композитор: Джордж Фентон
В ролях: Мэттью МакКонахи, Кейт Хадсон, Дональд Сазерленд, Алексис Дзена, Юэн Бремнер, Рэй Уинстон, Кевин Харт, Мальколм-Джамал Уорнер, Брайан Хукс, Дэвид Робертс, Майкл Малхерен, Адам ЛеФевр
Бюджет: $70 000 000
Сборы в США: $70 231 041
Сборы в России: $4 016 528
Сборы в мире: $111 231 041
Мировая премьера: 7 февраля 2008
Релиз на DVD: 15 июня 2009, «Юниверсал Пикчерс Рус»
Описание: История о двух кладоискателях, которые сначала развелись, разочаровавшись в своём увлечении и друг в друге, а затем разом напали на след настоящего сокровища.
Раздача группы: Изображение

Изображение User Rating: 6.735 (13 333)
Изображение User Rating: 5.40 (34 220)
MPAA: PG-13 - Детям до 13 лет просмотр не желателен
Качество: BDRip, 1080p
Формат: Matroska
Видео: AVC; 1920x796 (2.40:1); 9270 Kbps; 23,976 fps; 0,253 bit/pixel
Аудио №1: English; AC3; 640 Kbps; CBR; 6 ch
Аудио №2: Russian; AC3; 384 Kbps; CBR; 6 ch

Субтитры: Danish, Finnish, Greek, Portuguese, Swedish

MediaInfo
Общее
Уникальный идентификатор : 194630657182993346479284153480192274445 (0x926C80468BD2C5AA869B779F79E9300D)
Полное имя : Z:\WWW\TR-Downloads\Fools.Gold.1080p.[R.G.Daredevil].mkv
Формат : Matroska
Версия формата : Version 1
Размер файла : 8,25 Гбайт
Продолжительность : 1 ч. 52 м.
Общий поток : 10,5 Мбит/сек
Название фильма : -=Kostyan=-HQ Files
Дата кодирования : UTC 2008-06-21 16:41:43
Программа кодирования : mkvmerge v2.0.0 ('After The Rain Has Fallen') built on Jan 13 2007 19:58:56
Библиотека кодирования : libebml v0.7.7 + libmatroska v0.8.0

Видео
Идентификатор : 1
Формат : AVC
Формат/Информация : Advanced Video Codec
Профиль формата : High@L4.1
Параметр CABAC формата : Да
Параметр ReFrames формата : 5 кадров
Идентификатор кодека : V_MPEG4/ISO/AVC
Продолжительность : 1 ч. 52 м.
Битрейт : 9475 Кбит/сек
Ширина : 1920 пикселей
Высота : 796 пикселей
Соотношение сторон : 2,40:1
Частота кадров : 23,976 кадра/сек
Цветовое пространство : YUV
Субдискретизация насыщенности : 4:2:0
Битовая глубина : 8 бит
Тип развёртки : Прогрессивная
Бит/(Пиксели*Кадры) : 0.259
Размер потока : 7,28 Гбайт (88%)
Библиотека кодирования : x264 core 60 r883M cfaac5c
Настройки программы : cabac=1 / ref=5 / deblock=1:-3:-3 / analyse=0x3:0x133 / me=umh / subme=7 / rdcmp=psy / brdo=0 / mixed_ref=1 / me_range=24 / chroma_me=1 / trellis=0 / 8x8dct=1 / cqm=2 / deadzone=6,4 / chroma_qp_offset=0 / threads=6 / nr=0 / decimate=1 / mbaff=0 / bframes=3 / b_pyramid=1 / b_adapt=1 / b_bias=0 / direct=3 / wpredb=1 / bime=1 / keyint=250 / keyint_min=25 / scenecut=40(pre) / rc=2pass / bitrate=9475 / ratetol=1.0 / rceq='blurCplx^(1-qComp)' / qcomp=1.00 / qpmin=10 / qpmax=51 / qpstep=4 / cplxblur=20.0 / qblur=0.5 / ip_ratio=1.40 / pb_ratio=1.30 / aq=2:0.80
Язык : English
Default : Да
Forced : Нет

Аудио #1
Идентификатор : 2
Формат : AC-3
Формат/Информация : Audio Coding 3
Расширение режима : CM (complete main)
Параметр Endianness формата : Big
Идентификатор кодека : A_AC3
Продолжительность : 1 ч. 52 м.
Вид битрейта : Постоянный
Битрейт : 640 Кбит/сек
Каналы : 6 каналов
Расположение каналов : Front: L C R, Side: L R, LFE
Частота : 48,0 КГц
Битовая глубина : 16 бит
Метод сжатия : С потерями
Размер потока : 515 Мбайт (6%)
Язык : English
Default : Нет
Forced : Нет

Аудио #2
Идентификатор : 8
Формат : AC-3
Формат/Информация : Audio Coding 3
Расширение режима : CM (complete main)
Параметр Endianness формата : Big
Идентификатор кодека : A_AC3
Продолжительность : 1 ч. 52 м.
Вид битрейта : Постоянный
Битрейт : 384 Кбит/сек
Каналы : 6 каналов
Расположение каналов : Front: L C R, Side: L R, LFE
Частота : 48,0 КГц
Битовая глубина : 16 бит
Метод сжатия : С потерями
Размер потока : 309 Мбайт (4%)
Язык : Russian
Default : Да
Forced : Нет

Текст #1
Идентификатор : 3
Формат : UTF-8
Идентификатор кодека : S_TEXT/UTF8
Идентификатор кодека/Информация : UTF-8 Plain Text
Язык : Danish
Default : Да
Forced : Нет

Текст #2
Идентификатор : 4
Формат : UTF-8
Идентификатор кодека : S_TEXT/UTF8
Идентификатор кодека/Информация : UTF-8 Plain Text
Язык : Finnish
Default : Нет
Forced : Нет

Текст #3
Идентификатор : 5
Формат : UTF-8
Идентификатор кодека : S_TEXT/UTF8
Идентификатор кодека/Информация : UTF-8 Plain Text
Язык : Greek
Default : Нет
Forced : Нет

Текст #4
Идентификатор : 6
Формат : UTF-8
Идентификатор кодека : S_TEXT/UTF8
Идентификатор кодека/Информация : UTF-8 Plain Text
Язык : Portuguese
Default : Нет
Forced : Нет

Текст #5
Идентификатор : 7
Формат : UTF-8
Идентификатор кодека : S_TEXT/UTF8
Идентификатор кодека/Информация : UTF-8 Plain Text
Язык : Swedish
Default : Нет
Forced : Нет

Меню
00:00:00.000 : en:00:00:00.000
00:06:51.411 : en:00:06:51.411
00:09:28.902 : en:00:09:28.902
00:15:07.573 : en:00:15:07.573
00:21:36.128 : en:00:21:36.128
00:25:33.365 : en:00:25:33.365
00:30:55.520 : en:00:30:55.520
00:35:23.788 : en:00:35:23.788
00:38:57.835 : en:00:38:57.835
00:47:10.995 : en:00:47:10.995
00:51:34.425 : en:00:51:34.425
00:56:03.026 : en:00:56:03.026
01:00:26.122 : en:01:00:26.122
01:02:48.598 : en:01:02:48.598
01:08:26.936 : en:01:08:26.936
01:13:28.237 : en:01:13:28.237
01:18:46.221 : en:01:18:46.221
01:25:29.291 : en:01:25:29.291
01:28:26.134 : en:01:28:26.134
01:32:18.700 : en:01:32:18.700
01:36:29.617 : en:01:36:29.617
01:39:50.484 : en:01:39:50.484
01:43:28.369 : en:01:43:28.369
01:46:46.066 : en:01:46:46.066
01:48:05.479 : en:01:48:05.479
01:52:26.281 : en:01:52:26.281
Свернуть
Скриншоты

Изображение
Изображение
Изображение
Изображение
Изображение
Свернуть
Не в сети
Профиль  
 Добавлено: 2012-10-30 20:29 (спустя 4 дня)
Стаж: 5 лет
Сообщений: 14
классный фильм
Не в сети
Профиль  
Начать новую темуОтветить на тему  [ Сообщений: 2 ] 
Вы не можете начинать темы
Вы не можете отвечать на сообщения
Вы не можете редактировать свои сообщения
Вы не можете удалять свои сообщения