Правила форума

  • В этом разделе создание новых тем Запрещено.
  • Для создания новых тем пользуйтесь Корневым разделом DVD и HD фильмы.
Начать новую темуОтветить на тему  [ 1 сообщение ] 
Торрент файл
Размер: 16.91 GB • Зарегистрирован: 3 года 3 месяца • Статус: Проверено
Скачан: 15 раз • Желающих скачать: 0 • Поблагодарили: 1 раз
 Раздают: 0  |  0 KB/s  ]   Качают: 0  |  0 KB/s  ] 
 Полного источника не было 2 года 4 месяца 
Сообщения
 Добавлено: 2013-08-23 20:46
Модератор релиз-группы
Аватара пользователя
Стаж: 7 лет 8 месяцев
Возраст: 29
Сообщений: 9789
Спасибок: 23730
Лайков: 103
Изображение

Золото дураков
Fool's Gold


Год выпуска: 2008
Страна: США
Слоган: «В любви все средства хороши»
Жанр: мелодрама, комедия, приключения
Продолжительность: 01:52:26
Перевод: Профессиональный (полное дублирование)
Режиссер: Энди Теннант
Сценарий: Джон Клафлин, Дэниэл Зелман, Энди Теннант
Продюсер: Дональд Де Лайн, Берни Голдманн, Джон Клейн, Джим Дайер, Стивен Джонс
Оператор: Дон Бёрджесс
Композитор: Джордж Фентон
В ролях: Мэттью МакКонахи, Кейт Хадсон, Дональд Сазерленд, Алексис Дзена, Юэн Бремнер, Рэй Уинстон, Кевин Харт, Мальколм-Джамал Уорнер, Брайан Хукс, Дэвид Робертс, Майкл Малхерен, Адам ЛеФевр
Бюджет: $70 000 000
Сборы в США: $70 231 041
Сборы в России: $4 016 528
Сборы в мире: $111 231 041
Мировая премьера: 7 февраля 2008
Релиз на DVD: 15 июня 2009, «Юниверсал Пикчерс Рус»
Описание: История о двух кладоискателях, которые сначала развелись, разочаровавшись в своём увлечении и друг в друге, а затем разом напали на след настоящего сокровища.

Изображение User Rating: 6.783 (15 793)
Изображение User Rating: 5.50 (39 523)
MPAA: PG-13 - Детям до 13 лет просмотр не желателен
Раздача группы: Изображение
Релиз группы: Изображение
Изображение
Качество: BD-Remux, 1080p
Формат: MKV
Видео: VC-1; 1920x1080 (16:9); 20082 Kbps; 23,976 fps; 0,404 bit/pixel
Аудио №1: русский; AC3; 384 Kbps; CBR; 6 ch
Аудио №2: английский; AC3; 640 Kbps; CBR; 6 ch

mediainfo
Общее
Уникальный идентификатор : 246009000988462081653573256613599178426 (0xB9139C33657A7498B4526E59AB6CEEBA)
Полное имя : D:\TORRENT\Zoloto.durakov.2008.VC-1.BDRemux.(1080p).Marchik60.mkv
Формат : Matroska
Размер файла : 16,9 Гбайт
Продолжительность : 1 ч. 52 м.
Общий поток : 21,5 Мбит/сек
Дата кодирования : UTC 2010-09-16 09:01:16
Программа кодирования : mkvmerge v2.3.0 ('Freak U') built on Sep 8 2008 18:32:16
Библиотека кодирования : libebml v0.7.7 + libmatroska v0.8.1

Видео
Идентификатор : 1
Формат : VC-1
Профиль формата : AP@L3
Идентификатор кодека : WVC1
Идентификатор кодека/Подсказка : Microsoft
Продолжительность : 1 ч. 52 м.
Битрейт : 20,1 Мбит/сек
Ширина : 1920 пикс.
Высота : 1080 пикс.
Соотношение сторон : 16:9
Частота кадров : 23,976 кадр/сек
Подвыборка цветности : 4:2:0
Битовая глубина : 8 бит
Тип развёртки : Прогрессивная
Метод сжатия : С потерями
Бит/(Пиксели*Кадры) : 0.404
Размер потока : 15,8 Гбайт (93%)
Язык : English

Аудио #1
Идентификатор : 2
Формат : AC-3
Формат/Информация : Audio Coding 3
Расширение режима : CM (complete main)
Идентификатор кодека : A_AC3
Продолжительность : 1 ч. 52 м.
Вид битрейта : Постоянный
Битрейт : 384 Кбит/сек
Каналы : 6 каналов
Расположение каналов : Front: L C R, Side: L R, LFE
Частота : 48,0 КГц
Битовая глубина : 16 бит
Метод сжатия : С потерями
Размер потока : 309 Мбайт (2%)
Заголовок : Дубляж
Язык : Russian

Аудио #2
Идентификатор : 3
Формат : AC-3
Формат/Информация : Audio Coding 3
Расширение режима : CM (complete main)
Идентификатор кодека : A_AC3
Продолжительность : 1 ч. 52 м.
Вид битрейта : Постоянный
Битрейт : 640 Кбит/сек
Каналы : 6 каналов
Расположение каналов : Front: L C R, Side: L R, LFE
Частота : 48,0 КГц
Битовая глубина : 16 бит
Метод сжатия : С потерями
Размер потока : 515 Мбайт (3%)
Заголовок : Английский язык
Язык : English

Меню
00:00:00.000 : en:00:00:00.000
00:06:51.411 : en:00:06:51.411
00:09:28.902 : en:00:09:28.902
00:15:07.573 : en:00:15:07.573
00:21:36.128 : en:00:21:36.128
00:25:33.365 : en:00:25:33.365
00:30:55.520 : en:00:30:55.520
00:35:23.788 : en:00:35:23.788
00:38:57.835 : en:00:38:57.835
00:47:10.995 : en:00:47:10.995
00:51:34.425 : en:00:51:34.425
00:56:03.026 : en:00:56:03.026
01:00:26.122 : en:01:00:26.122
01:02:48.598 : en:01:02:48.598
01:08:26.936 : en:01:08:26.936
01:13:28.237 : en:01:13:28.237
01:18:46.221 : en:01:18:46.221
01:25:29.291 : en:01:25:29.291
01:28:26.134 : en:01:28:26.134
01:32:18.700 : en:01:32:18.700
01:36:29.617 : en:01:36:29.617
01:39:50.484 : en:01:39:50.484
01:43:28.369 : en:01:43:28.369
01:46:46.066 : en:01:46:46.066
01:48:05.479 : en:01:48:05.479
01:52:26.281 : en:01:52:26.281


Свернуть
Скриншоты

Изображение
Изображение
Изображение
Изображение
Изображение
Изображение
Изображение
Изображение
Свернуть


Тема поднималась пользователем volkov2009 2013-08-23 20:46.
Не в сети
Профиль  
Начать новую темуОтветить на тему  [ 1 сообщение ] 
Вы не можете начинать темы
Вы не можете отвечать на сообщения
Вы не можете редактировать свои сообщения
Вы не можете удалять свои сообщения