Правила форума

  • В этом разделе создание новых тем Запрещено.
  • Для создания новых тем пользуйтесь Корневым разделом DVD и HD фильмы.
Начать новую темуОтветить на тему  [ 1 сообщение ] 
Торрент файл
Размер: 17.07 GB • Зарегистрирован: 3 года 5 месяцев • Статус: Проверено
Скачан: 15 раз • Желающих скачать: 1 • Поблагодарили: 8 раз
 Раздают: 0  |  0 KB/s  ]   Качают: 0  |  0 KB/s  ] 
 Полного источника не было 3 года 
Сообщения
 Добавлено: 2013-07-07 18:47
Аватара пользователя
Стаж: 6 лет 5 месяцев
Сообщений: 164
Спасибок: 151
Лайков: 9
Золотой Компас / The Golden Compass

Изображение


Год выпуска: 2007
Страна: США, Великобритания
Слоган: «За пределами нашего мира есть и другие. Компас укажет дорогу.»
Жанр: фэнтези, приключения, семейный
Продолжительность: 01:53:17
Версия фильма: Unrated / Полная версия
Перевод: Профессиональный (дубляж) + Профессиональный (многоголосый закадровый) + Профессиональный (многоголосый закадровый) + Профессиональный (многоголосый закадровый) + Профессиональный (двухголосый закадровый) + Профессиональный (одноголосый закадровый) + Оригинальная звуковая дорожка
Субтитры: Русские

Режиссёр: Крис Вайц
Сценарист: Крис Вайц, Филип Пулман
Продюсер: Билл Карраро, Тоби Эммерих, Дебора Форте
Оператор: Генри Брэхам
Композитор: Александр Депла
В ролях: Николь Кидман, Дэниэл Крэйг, Дакота Блю Ричардс, Бен Уолкер, Фредди Хаймор, Иэн МакКеллен, Ева Грин, Джим Картер, Том Кортни, Йен МакШейн
Описание: Двенадцатилетняя Лира отправляется в удивительное путешествие к Северному Полюсу, чтобы спасти своего похищенного друга. В помощь к девочке приходят северные ведьмы под предводительством прекрасной Серафины Пеккала и огромный бронированный медведь. На пути их стоят зловещая Миссис Коултер и армия её монстров.
Рейтинг MPAA: Рейтинг PG-13 (Дети до 13 лет допускаются на фильм только с родителями)
Мировая премьера: 27 ноября 2007
Премьера в России: 6 декабря 2007
Бюджет: $180 000 000
Кассовые сборы: $372 234 864
Изображение
Изображение

Качество: Blu-ray Rip
Формат: MKV
Аудио кодек: DTS
Видео: MPEG-4 AVC (H264), 1920x802, 23.976 fps, High Profile 4.1, ~13600 kbps avg, bit/(pixel*frame) 0.368
Аудио #1: Russian: 48 kHz, AC3, 3/2 (L,C,R,l,r) + LFE ch, ~448.00 kbps avg (дубляж) [Профессиональный (дубляж)]
Аудио #2: Russian: 48 kHz, DTS, 3/2 (L,C,R,l,r) + LFE ch, ~1510.00 kbps avg (многоголосый закадровый, Novafilm) [Профессиональный (многоголосый закадровый)]
Аудио #3: Russian: 48 kHz, DTS, 3/2 (L,C,R,l,r) + LFE ch, ~755.00 kbps avg (многоголосый закадровый, Lostfilm) [Профессиональный (многоголосый закадровый)]
Аудио #4: Russian: 48 kHz, DTS, 3/2 (L,C,R,l,r) + LFE ch, ~1510.00 kbps avg (многоголосый закадровый, Kinomania) [Профессиональный (многоголосый закадровый)]
Аудио #5: Russian: 48 kHz, DTS, 3/2 (L,C,R,l,r) + LFE ch, ~755.00 kbps avg (двухголосый закадровый, Superbit) [Профессиональный (двухголосый закадровый)]
Аудио #6: Russian: 48 kHz, DTS, 3/2 (L,C,R,l,r) + LFE ch, ~1510.00 kbps avg (одноголосый закадровый, Ю.Сербин) [Профессиональный (одноголосый закадровый)]
Аудио #7: English: 48 kHz, DTS, 3/2 (L,C,R,l,r) + LFE ch, ~1510.00 kbps avg (Original) [Оригинальная звуковая дорожка]
Субтитры: Русские

Media Info
L:\The Golden Compass [Золотой компас] (2007) 1920x802 BDRip RusEngSubsChpt.mkv
General
Unique ID : 247697078039666492252468941307746550811 (0xBA58B8D33F5E6DB0BC1C5448D8AD841B)
Complete name : L:\The Golden Compass [Золотой компас] (2007) 1920x802 BDRip RusEngSubsChpt.mkv
Format : Matroska
Format version : Version 2
File size : 17.1 GiB
Duration : 1h 53mn
Overall bit rate : 21.6 Mbps
Movie name : ripped by -=mallaigne=-
Encoded date : UTC 2012-07-30 05:39:09
Writing application : mkvmerge v5.7.0 ('The Whirlwind') built on Jul 10 2012 18:39:26
Writing library : libebml v1.2.3 + libmatroska v1.3.0
Video #1
ID : 1
Format : AVC
Format/Info : Advanced Video Codec
Format profile : High@L4.1
Format settings, CABAC : Yes
Format settings, ReFrames : 5 frames
Codec ID : V_MPEG4/ISO/AVC
Duration : 1h 53mn
Bit rate : 13.6 Mbps
Width : 1 920 pixels
Height : 802 pixels
Display aspect ratio : 2.40:1
Frame rate : 23.976 fps
Color space : YUV
Chroma subsampling : 4:2:0
Bit depth : 8 bits
Scan type : Progressive
Bits/(Pixel*Frame) : 0.368
Stream size : 10.4 GiB (61%)
Title : 61% of the original
Writing library : x264 core 125 r2208kMod d9d2288
Encoding settings : cabac=1 / ref=5 / deblock=1:-3:-3 / analyse=0x3:0x133 / me=umh / subme=11 / psy=1 / fade_compensate=0.00 / psy_rd=1.10:0.10 / mixed_ref=1 / me_range=48 / chroma_me=1 / trellis=2 / 8x8dct=1 / cqm=0 / deadzone=21,11 / fast_pskip=0 / chroma_qp_offset=-3 / threads=12 / lookahead_threads=2 / sliced_threads=0 / nr=0 / decimate=0 / interlaced=0 / bluray_compat=0 / constrained_intra=0 / bframes=16 / b_pyramid=2 / b_adapt=2 / b_bias=0 / direct=3 / weightb=1 / open_gop=0 / weightp=2 / keyint=240 / keyint_min=23 / scenecut=40 / intra_refresh=0 / rc_lookahead=160 / rc=2pass / mbtree=1 / bitrate=13600 / ratetol=1.0 / qcomp=0.70 / qpmin=0 / qpmax=69 / qpstep=4 / cplxblur=20.0 / qblur=0.5 / ip_ratio=1.40 / aq=2:0.80 / zones=148200,151380,b=0.5/151381,162980,b=0.3
Language : English
Default : Yes
Forced : No
Audio #2
ID : 2
Format : AC-3
Format/Info : Audio Coding 3
Mode extension : CM (complete main)
Format settings, Endianness : Big
Codec ID : A_AC3
Duration : 1h 53mn
Bit rate mode : Constant
Bit rate : 448 Kbps
Channel(s) : 6 channels
Channel positions : Front: L C R, Side: L R, LFE
Sampling rate : 48.0 KHz
Bit depth : 16 bits
Compression mode : Lossy
Stream size : 363 MiB (2%)
Title : Dub AC3 6ch 448kbps
Language : Russian
Default : Yes
Forced : No
Audio #3
ID : 3
Format : DTS
Format/Info : Digital Theater Systems
Codec ID : A_DTS
Duration : 1h 53mn
Bit rate mode : Constant
Bit rate : 1 510 Kbps
Channel(s) : 6 channels
Channel positions : Front: L C R, Side: L R, LFE
Sampling rate : 48.0 KHz
Bit depth : 24 bits
Compression mode : Lossy
Stream size : 1.19 GiB (7%)
Title : MVO DTS 6ch 1510kbps (Novafilm)
Language : Russian
Default : No
Forced : No
Audio #4
ID : 4
Format : DTS
Format/Info : Digital Theater Systems
Codec ID : A_DTS
Duration : 1h 53mn
Bit rate mode : Constant
Bit rate : 755 Kbps
Channel(s) : 6 channels
Channel positions : Front: L C R, Side: L R, LFE
Sampling rate : 48.0 KHz
Bit depth : 24 bits
Compression mode : Lossy
Stream size : 611 MiB (3%)
Title : MVO DTS 6ch 755kbps (Lostfilm)
Language : Russian
Default : No
Forced : No
Audio #5
ID : 5
Format : DTS
Format/Info : Digital Theater Systems
Codec ID : A_DTS
Duration : 1h 53mn
Bit rate mode : Constant
Bit rate : 1 510 Kbps
Channel(s) : 6 channels
Channel positions : Front: L C R, Side: L R, LFE
Sampling rate : 48.0 KHz
Bit depth : 24 bits
Compression mode : Lossy
Stream size : 1.19 GiB (7%)
Title : MVO DTS 6ch 1510kbps (Kinomania)
Language : Russian
Default : No
Forced : No
Audio #6
ID : 6
Format : DTS
Format/Info : Digital Theater Systems
Codec ID : A_DTS
Duration : 1h 53mn
Bit rate mode : Constant
Bit rate : 755 Kbps
Channel(s) : 6 channels
Channel positions : Front: L C R, Side: L R, LFE
Sampling rate : 48.0 KHz
Bit depth : 24 bits
Compression mode : Lossy
Stream size : 611 MiB (3%)
Title : DVO DTS 6ch 755kbps (Superbit)
Language : Russian
Default : No
Forced : No
Audio #7
ID : 7
Format : DTS
Format/Info : Digital Theater Systems
Codec ID : A_DTS
Duration : 1h 53mn
Bit rate mode : Constant
Bit rate : 1 510 Kbps
Channel(s) : 6 channels
Channel positions : Front: L C R, Side: L R, LFE
Sampling rate : 48.0 KHz
Bit depth : 24 bits
Compression mode : Lossy
Stream size : 1.19 GiB (7%)
Title : AVO DTS 6ch 1510kbps (Ю.Сербин)
Language : Russian
Default : No
Forced : No
Audio #8
ID : 8
Format : DTS
Format/Info : Digital Theater Systems
Codec ID : A_DTS
Duration : 1h 53mn
Bit rate mode : Constant
Bit rate : 1 510 Kbps
Channel(s) : 6 channels
Channel positions : Front: L C R, Side: L R, LFE
Sampling rate : 48.0 KHz
Bit depth : 24 bits
Compression mode : Lossy
Stream size : 1.19 GiB (7%)
Title : Original DTS 6ch 1510kbps
Language : English
Default : No
Forced : No
Text #9
ID : 9
Format : UTF-8
Codec ID : S_TEXT/UTF8
Codec ID/Info : UTF-8 Plain Text
Title : R5
Language : Russian
Default : No
Forced : No
Text #10
ID : 10
Format : UTF-8
Codec ID : S_TEXT/UTF8
Codec ID/Info : UTF-8 Plain Text
Title : Kinomania
Language : Russian
Default : No
Forced : No
Text #11
ID : 11
Format : UTF-8
Codec ID : S_TEXT/UTF8
Codec ID/Info : UTF-8 Plain Text
Title : SDH
Language : English
Default : No
Forced : No
Menu
00:00:00.000 : en:Prologue Many Worlds
00:04:40.822 : en:The Decanter of Tokay
00:08:52.532 : en:The Idea of North
00:13:05.702 : en:Lyra's Jordan
00:18:58.596 : en:The Alethiometer
00:21:58.943 : en:Mrs. Coulter
00:29:15.587 : en:The Throwing Nets
00:33:41.269 : en:John Faa
00:39:41.170 : en:The Spies
00:45:29.644 : en:Serafina Pekkala
00:48:13.641 : en:The Aeronaut and the Bear
00:54:01.822 : en:Armour
00:59:55.550 : en:The Lost Boy
01:08:10.044 : en:Captivity
01:14:12.114 : en:Mortal Combat
01:21:31.678 : en:Bolvanger Lights
01:24:43.829 : en:The Silver Guillotine
01:33:26.059 : en:The Witches
01:39:27.211 : en:A Prophecy
01:43:08.974 : en:End Credits
Свернуть
х264
x264 [info]: frame I:1009 Avg QP:14.53 size:249717 PSNR Mean Y:50.11 U:52.31 V:52.74 Avg:50.74 Global:50.35
x264 [info]: frame P:36473 Avg QP:17.05 size:113703 PSNR Mean Y:48.21 U:51.17 V:51.73 Avg:48.97 Global:48.58
x264 [info]: frame B:125499 Avg QP:18.44 size: 56820 PSNR Mean Y:47.37 U:50.41 V:51.02 Avg:48.13 Global:47.50
x264 [info]: consecutive B-frames: 1.7% 2.6% 11.2% 22.7% 14.1% 43.7% 1.7% 0.8% 0.2% 0.5% 0.1% 0.1% 0.1% 0.1% 0.0% 0.0% 0.3%
x264 [info]: mb I I16..4: 9.0% 76.9% 14.0%
x264 [info]: mb P I16..4: 1.1% 26.6% 2.3% P16..4: 21.9% 26.1% 9.1% 2.1% 0.2% skip:10.5%
x264 [info]: mb B I16..4: 0.1% 5.6% 0.4% B16..8: 32.7% 22.4% 3.6% direct:10.9% skip:24.4% L0:38.5% L1:37.8% BI:23.7%
x264 [info]: 8x8 transform intra:88.8% inter:50.2%
x264 [info]: direct mvs spatial:97.7% temporal:2.3%
x264 [info]: coded y,uvDC,uvAC intra: 95.5% 93.0% 82.5% inter: 42.4% 32.6% 17.0%
x264 [info]: i16 v,h,dc,p: 25% 10% 10% 55%
x264 [info]: i8 v,h,dc,ddl,ddr,vr,hd,vl,hu: 12% 10% 12% 9% 11% 10% 11% 12% 14%
x264 [info]: i4 v,h,dc,ddl,ddr,vr,hd,vl,hu: 34% 6% 7% 7% 10% 10% 9% 8% 9%
x264 [info]: i8c dc,h,v,p: 49% 18% 17% 15%
x264 [info]: Weighted P-Frames: Y:4.3% UV:2.2%
x264 [info]: ref P L0: 48.4% 8.8% 23.7% 10.1% 8.1% 0.9% 0.0%
x264 [info]: ref B L0: 83.8% 12.0% 3.2% 1.1%
x264 [info]: ref B L1: 95.0% 5.0%
x264 [info]: SSIM Mean Y:0.9861100 (18.573db)
x264 [info]: PSNR Mean Y:47.571 U:50.593 V:51.194 Avg:48.336 Global:47.736 kb/s:13569.20
x264 [info]: encoded 162981 frames, 4.21 fps, 13569.20 kb/s, duration 10:45:09.83
Свернуть
Скриншоты
ИзображениеИзображение
ИзображениеИзображение
ИзображениеИзображение
Свернуть
Не в сети
Профиль  
Начать новую темуОтветить на тему  [ 1 сообщение ] 
Вы не можете начинать темы
Вы не можете отвечать на сообщения
Вы не можете редактировать свои сообщения
Вы не можете удалять свои сообщения