Правила форума

  • В этом разделе создание новых тем Запрещено.
  • Для создания новых тем пользуйтесь Корневым разделом DVD и HD фильмы.
Начать новую темуОтветить на тему  [ Сообщений: 2 ] 
Торрент файл
Размер: 2.47 GB • Зарегистрирован: 2 года 7 месяцев • Статус: T Временный релиз
Скачан: 15 раз • Желающих скачать: 0 • Поблагодарили: 6 раз
 Раздают: 0  |  0 KB/s  ]   Качают: 0  |  0 KB/s  ] 
 Полного источника не было 10 месяцев 
Сообщения
 Добавлено: 2014-05-07 10:25
DVD Release Group
Аватара пользователя
Стаж: 7 лет 1 месяц
Сообщений: 3569
Спасибок: 247779
Лайков: 1020
Зови меня сумасшедшим

Call Me Crazy: A Five Film


Изображение


Год выпуска: 2013
Страна: США
Жанр: Драма
Продолжительность: 01:28:25
Перевод: Профессиональный (многоголосый, закадровый)
Режиссер: Лора Дерн, Брайс Даллас Ховард, Бонни Хант
В ролях: Бриттани Сноу, Дженнифер Хадсон, Сара Хайланд, Мелисса Лео, Митч Раус, Октавия Спенсер, София Васильева, Эрни Хадсон, Джейсон Риттер, Джин Смарт
Описание: Фильм состоит из пяти коротких историй, каждая из которых названа именем главного героя (Люси, Эдди, Эллисон, Грейс и Мегги). Пятерых персонажей объединяет один недуг: психическое расстройство.
Изображение
Качество: WEBDL 720p
Формат: MKV
Видео кодек: H.264
Аудио кодек: AC3
Видео: 1280x720 23.98fps 3345kbps
Аудио:
Audio Rus: 48kHz 2ch 192kbps
Audio Eng: 48kHz 6ch 384kbps
"MediaInfo"
Формат : Matroska
Версия формата : Version 4 / Version 2
Размер файла : 2,47 Гбайт
Продолжительность : 1 ч. 28 м.
Общий поток : 4000 Кбит/сек
Название фильма : Зови меня сумасшедшим
Дата кодирования : UTC 2014-05-06 23:02:07
Программа кодирования : mkvmerge v6.9.1 ('Blue Panther') 64bit built on Apr 18 2014 18:23:38
Библиотека кодирования : libebml v1.3.0 + libmatroska v1.4.1

Видео
Идентификатор : 1
Формат : MPEG-4 Visual
Профиль формата : Simple@L5
Параметр BVOP формата : Нет
Параметр QPel формата : Нет
Параметр GMC формата : Без точки перехода
Параметр матрицы формата : Default (H.263)
Идентификатор кодека : XVID
Идентификатор кодека/Подсказка : XviD
Продолжительность : 1 ч. 28 м.
Битрейт : 3345 Кбит/сек
Ширина : 1280 пикселей
Высота : 720 пикселей
Соотношение сторон : 16:9
Частота кадров : 23,976 кадра/сек
Цветовое пространство : YUV
Субдискретизация насыщенности : 4:2:0
Битовая глубина : 8 бит
Тип развёртки : Прогрессивная
Метод сжатия : С потерями
Бит/(Пиксели*Кадры) : 0.151
Размер потока : 2,07 Гбайт (84%)
Заголовок : Release Group CINEMANIA
Библиотека кодирования : Lavc55.55.104
Default : Да
Forced : Нет

Аудио #1
Идентификатор : 2
Формат : AC-3
Формат/Информация : Audio Coding 3
Расширение режима : CM (complete main)
Идентификатор кодека : A_AC3
Продолжительность : 1 ч. 28 м.
Вид битрейта : Постоянный
Битрейт : 192 Кбит/сек
Каналы : 2 канала
Расположение каналов : Front: L R
Частота : 48,0 КГц
Битовая глубина : 16 бит
Метод сжатия : С потерями
Размер потока : 121 Мбайт (5%)
Заголовок : Itunes
Язык : Russian
Default : Да
Forced : Да

Аудио #2
Идентификатор : 3
Формат : AC-3
Формат/Информация : Audio Coding 3
Расширение режима : CM (complete main)
Идентификатор кодека : A_AC3
Продолжительность : 1 ч. 28 м.
Вид битрейта : Постоянный
Битрейт : 384 Кбит/сек
Каналы : 6 каналов
Расположение каналов : Front: L C R, Side: L R, LFE
Частота : 48,0 КГц
Битовая глубина : 16 бит
Метод сжатия : С потерями
Размер потока : 243 Мбайт (10%)
Язык : English
Default : Нет
Forced : Нет

Меню
00:00:00.000 : en:1
00:04:58.000 : en:2
00:08:44.000 : en:3
00:13:40.000 : en:4
00:18:12.000 : en:5
00:21:33.000 : en:6
00:28:04.000 : en:7
00:36:44.000 : en:8
00:42:48.000 : en:9
00:50:13.000 : en:10
00:56:00.000 : en:11
01:01:42.000 : en:12
01:06:53.000 : en:13
01:09:55.000 : en:14
01:16:13.000 : en:15
01:24:48.000 : en:16
Свернуть

"Скриншоты"
Изображение
Изображение
Изображение
Изображение
Изображение
Изображение
Свернуть
 vitso нравится это.
Не в сети
Профиль  
 Добавлено: 2014-05-19 06:36 (спустя 11 дней)
Стаж: 2 года 6 месяцев
Сообщений: 9
ну и как вам?
____________
Flexoseal
Не в сети
Профиль  
Начать новую темуОтветить на тему  [ Сообщений: 2 ] 
Вы не можете начинать темы
Вы не можете отвечать на сообщения
Вы не можете редактировать свои сообщения
Вы не можете удалять свои сообщения