Правила форума

  • В этом разделе создание новых тем Запрещено.
  • Для создания новых тем пользуйтесь Корневым разделом DVD и HD фильмы.
Начать новую темуОтветить на тему  [ 1 сообщение ] 
Торрент файл
Размер: 3.76 GB • Зарегистрирован: 3 года 8 месяцев • Статус: Проверено
Скачан: 14 раз • Желающих скачать: 0 • Поблагодарили: 6 раз
 Раздают: 0  |  0 KB/s  ]   Качают: 0  |  0 KB/s  ] 
 Полного источника не было 3 года 2 месяца 
Сообщения
 Добавлено: 2013-03-25 10:26
Модератор
Аватара пользователя
Стаж: 6 лет 10 месяцев
Возраст: 33
Сообщений: 5908
Спасибок: 61252
Лайков: 3540
Изображение

Зубастики 3
Critters 3


Год выпуска: 1991
Страна: США
Слоган: «Вы - то, что они едят»
Жанр: ужасы, фантастика, триллер, комедия
Продолжительность: 01:21:20
Перевод: 3x Профессиональный (двухголосый закадровый) Студия Инис по заказу Союз-Видео, ГТРК Россия, двухголосый №3 + Одноголосый (закадровый) И.Сафронов + 3x Авторский (одноголосый закадровый) А.Гаврилов, С.Кузнецов, В.Горчаков
Режиссер: Кристин Питерсон
Сценарий: Дэвид Дж. Шоу, Руперт Харви, Бэрри Оппер
Продюсер: Руперт Харви, Бэрри Оппер, Марк Ордески
Оператор: Томас Л. Колэуэй
Композитор: Дэвид С. Уильямс
В ролях: Джон Кэлвин, Айми Брукс, Кристиан Казинс, Джозеф Казинс, Уильям Дэннис Хант, Нина Аксельрод, Леонардо ДиКаприо, Дон Кит Оппер, Джеффри Блейк, Хосе Луис Валансуэла, Диана Беллами, Кэтрин Кортес

Мировая премьера: 11 декабря 1991
Релиз на DVD: 9 февраля 2012, «CP-Digital»
Описание: На этот раз мохнатые пришельцы из космоса захватывают дом в Лос-Анджелесе. Они выгоняют на улицу всех его обитателей. Космический Охотник встает на их защиту и сам становится дичью, которую Зубастики преследуют во всех таинственных уголках дома...

Изображение User Rating: 5.533 (2935)
Изображение User Rating: 3.80 (5 315)
MPAA: PG-13 - Детям до 13 лет просмотр не желателен
Раздача группы: Изображение
Качество: WEB-DLRip, 720p
Формат: MKV
Видео: AVC; 1280x720 (16:9); 4121 Kbps; 25 fps; 0,179 bit/pixel
Аудио №1: русский; AC3; 448 Kbps; CBR; 6 ch | Инис
Аудио №2: русский; AC3; 192 Kbps; CBR; 2 ch | ГТРК Россия
Аудио №3: русский; AC3; 448 Kbps; CBR; 6 ch | DVO3
Аудио №4: русский; AC3; 192 Kbps; CBR; 2 ch | Сафронов
Аудио №5: русский; AC3; 192 Kbps; CBR; 2 ch | Гаврилов
Аудио №6: русский; AC3; 224 Kbps; CBR; 2 ch | Кузнецов
Аудио №7: русский; AC3; 224 Kbps; CBR; 2 ch | Горчаков
Аудио №8: AC3; 448 Kbps; CBR; 6 ch |Оригинал
Субтитры №1: русские,
Субтитры №2:

mediainfo
Общее
Уникальный идентификатор : 237047046676623647532771979539181396395 (0xB25599BD23FFB12192C48B976FF6E1AB)
Полное имя : D:\HDFILMS\Critters.3.1991.720p.WEB-DL.7xRus.Eng.mkv
Формат : Matroska
Версия формата : Version 2
Размер файла : 3,76 Гбайт
Продолжительность : 1 ч. 21 м.
Общий поток : 6621 Кбит/сек
Название фильма : Critters 3
Дата кодирования : UTC 2013-03-10 08:27:06
Программа кодирования : mkvmerge v5.3.0 ('I could have danced') built on Feb 9 2012 10:38:07
Библиотека кодирования : libebml v1.2.3 + libmatroska v1.3.0

Видео
Идентификатор : 1
Формат : AVC
Формат/Информация : Advanced Video Codec
Профиль формата : High@L3.1
Параметр CABAC формата : Нет
Параметр ReFrames формата : 2 кадра
Идентификатор кодека : V_MPEG4/ISO/AVC
Продолжительность : 1 ч. 21 м.
Битрейт : 4121 Кбит/сек
Ширина : 1280 пикселей
Высота : 720 пикселей
Соотношение сторон : 16:9
Режим частоты кадров : Постоянный
Частота кадров : 25,000 кадров/сек
Цветовое пространство : YUV
Субдискретизация насыщенности : 4:2:0
Битовая глубина : 8 бит
Тип развёртки : Прогрессивная
Бит/(Пиксели*Кадры) : 0.179
Размер потока : 2,34 Гбайт (62%)
Default : Нет
Forced : Нет
Основные цвета : BT.709
Характеристики трансфера : BT.709
Коэффициенты матрицы : BT.709

Аудио #1
Идентификатор : 2
Формат : AC-3
Формат/Информация : Audio Coding 3
Расширение режима : CM (complete main)
Параметр Endianness формата : Big
Идентификатор кодека : A_AC3
Продолжительность : 1 ч. 21 м.
Вид битрейта : Постоянный
Битрейт : 448 Кбит/сек
Каналы : 6 каналов
Расположение каналов : Front: L C R, Side: L R, LFE
Частота : 48,0 КГц
Битовая глубина : 16 бит
Метод сжатия : С потерями
Размер потока : 261 Мбайт (7%)
Заголовок : DVO Inis AC3 5.1 448 kbps
Язык : Russian
Default : Нет
Forced : Нет

Аудио #2
Идентификатор : 3
Формат : AC-3
Формат/Информация : Audio Coding 3
Расширение режима : CM (complete main)
Параметр Endianness формата : Big
Идентификатор кодека : A_AC3
Продолжительность : 1 ч. 21 м.
Вид битрейта : Постоянный
Битрейт : 192 Кбит/сек
Каналы : 2 канала
Расположение каналов : Front: L R
Частота : 48,0 КГц
Битовая глубина : 16 бит
Метод сжатия : С потерями
Размер потока : 112 Мбайт (3%)
Заголовок : DVO Russia AC3 2.0 192 kbps
Язык : Russian
Default : Нет
Forced : Нет

Аудио #3
Идентификатор : 4
Формат : AC-3
Формат/Информация : Audio Coding 3
Расширение режима : CM (complete main)
Параметр Endianness формата : Big
Идентификатор кодека : A_AC3
Продолжительность : 1 ч. 21 м.
Вид битрейта : Постоянный
Битрейт : 448 Кбит/сек
Каналы : 6 каналов
Расположение каналов : Front: L C R, Side: L R, LFE
Частота : 48,0 КГц
Битовая глубина : 16 бит
Метод сжатия : С потерями
Размер потока : 261 Мбайт (7%)
Заголовок : DVO3 AC3 5.1 448 kbps
Язык : Russian
Default : Нет
Forced : Нет

Аудио #4
Идентификатор : 5
Формат : AC-3
Формат/Информация : Audio Coding 3
Расширение режима : CM (complete main)
Параметр Endianness формата : Big
Идентификатор кодека : A_AC3
Продолжительность : 1 ч. 21 м.
Вид битрейта : Постоянный
Битрейт : 192 Кбит/сек
Каналы : 2 канала
Расположение каналов : Front: L R
Частота : 48,0 КГц
Битовая глубина : 16 бит
Метод сжатия : С потерями
Размер потока : 112 Мбайт (3%)
Заголовок : Safronov AC3 2.0 192 kbps
Язык : Russian
Default : Нет
Forced : Нет

Аудио #5
Идентификатор : 6
Формат : AC-3
Формат/Информация : Audio Coding 3
Расширение режима : CM (complete main)
Параметр Endianness формата : Big
Идентификатор кодека : A_AC3
Продолжительность : 1 ч. 21 м.
Вид битрейта : Постоянный
Битрейт : 192 Кбит/сек
Каналы : 2 канала
Расположение каналов : Front: L R
Частота : 48,0 КГц
Битовая глубина : 16 бит
Метод сжатия : С потерями
Размер потока : 112 Мбайт (3%)
Заголовок : Gavrilov AC3 2.0 192 kbps
Язык : Russian
Default : Нет
Forced : Нет

Аудио #6
Идентификатор : 7
Формат : AC-3
Формат/Информация : Audio Coding 3
Расширение режима : CM (complete main)
Параметр Endianness формата : Big
Идентификатор кодека : A_AC3
Продолжительность : 1 ч. 21 м.
Вид битрейта : Постоянный
Битрейт : 224 Кбит/сек
Каналы : 2 канала
Расположение каналов : Front: L R
Частота : 48,0 КГц
Битовая глубина : 16 бит
Метод сжатия : С потерями
Размер потока : 130 Мбайт (3%)
Заголовок : Kuznetsov AC3 2.0 224 kbps
Язык : Russian
Default : Нет
Forced : Нет

Аудио #7
Идентификатор : 8
Формат : AC-3
Формат/Информация : Audio Coding 3
Расширение режима : CM (complete main)
Параметр Endianness формата : Big
Идентификатор кодека : A_AC3
Продолжительность : 1 ч. 21 м.
Вид битрейта : Постоянный
Битрейт : 224 Кбит/сек
Каналы : 2 канала
Расположение каналов : Front: L R
Частота : 48,0 КГц
Битовая глубина : 16 бит
Метод сжатия : С потерями
Размер потока : 130 Мбайт (3%)
Заголовок : Gorchakov AC3 2.0 224 kbps
Язык : Russian
Default : Нет
Forced : Нет

Аудио #8
Идентификатор : 9
Формат : AC-3
Формат/Информация : Audio Coding 3
Расширение режима : CM (complete main)
Параметр Endianness формата : Big
Идентификатор кодека : A_AC3
Продолжительность : 1 ч. 21 м.
Вид битрейта : Постоянный
Битрейт : 448 Кбит/сек
Каналы : 6 каналов
Расположение каналов : Front: L C R, Side: L R, LFE
Частота : 48,0 КГц
Битовая глубина : 16 бит
Метод сжатия : С потерями
Размер потока : 261 Мбайт (7%)
Заголовок : Original AC3 5.1 448 kbps
Язык : English
Default : Нет
Forced : Нет

Текст #1
Идентификатор : 10
Формат : UTF-8
Идентификатор кодека : S_TEXT/UTF8
Идентификатор кодека/Информация : UTF-8 Plain Text
Язык : Russian
Default : Нет
Forced : Нет

Текст #2
Идентификатор : 11
Формат : UTF-8
Идентификатор кодека : S_TEXT/UTF8
Идентификатор кодека/Информация : UTF-8 Plain Text
Язык : English
Default : Нет
Forced : Нет

Меню
00:00:00.000 : en:Chapter 1
00:10:08.900 : en:Chapter 2
00:19:23.300 : en:Chapter 3
00:28:50.100 : en:Chapter 4
00:38:49.500 : en:Chapter 5
00:47:59.000 : en:Chapter 6
00:57:49.800 : en:Chapter 7
01:07:54.000 : en:Chapter 8
01:17:35.160 : en:Chapter 9
Свернуть
Скриншоты

Изображение
Изображение
Изображение
Свернуть
_________________
ИзображениеИзображение Изображение
Изображение
 tany1984 и di-ys1 нравится это.
Не в сети
Профиль  
Начать новую темуОтветить на тему  [ 1 сообщение ] 
Вы не можете начинать темы
Вы не можете отвечать на сообщения
Вы не можете редактировать свои сообщения
Вы не можете удалять свои сообщения