Правила форума

  • В этом разделе создание новых тем Запрещено.
  • Для создания новых тем пользуйтесь Корневым разделом DVD и HD фильмы.
Начать новую темуОтветить на тему  [ Сообщений: 2 ] 
Торрент файл
Размер: 5.77 GB • Зарегистрирован: 3 года 5 месяцев • Статус: Проверено
Скачан: 3 раза • Желающих скачать: 0 • Поблагодарили: 1 раз
 Раздают: 0  |  0 KB/s  ]   Качают: 0  |  0 KB/s  ] 
 Полного источника не было 10 месяцев 
Сообщения
 Добавлено: 2013-06-21 09:39
Аватара пользователя
Стаж: 6 лет 1 месяц
Сообщений: 14
Спасибок: 13
Лайков: 5
Зуд седьмого года / Seven Year Itch

Изображение

Год выпуска: 1955
Страна: США
Жанр: мелодрама, комедия
Cлоган:«It TICKLES and TANTALIZES! - The funniest comedy since laughter began!»
Продолжительность: 1:44:24
Перевод: Профессиональный (полное дублирование)
Cубтитры: английские, русские

Режиссер: Билли Уайлдер
Сценарий: Джордж Аксельрод, Билли Уайлдер
Оператор: Милтон Р. Крэснер
Композитор: Альфред Ньюман, Сергей Рахманинов

В ролях:
Мэрилин Монро / Marilyn Monroe,
Том Юэлл / Tom Ewell,
Эвелин Кийес / Evelyn Keyes,
Сонни Тафтс / Sonny Tufts
и другие

Описание: Книгоиздатель Ричард Шерман женат уже семь лет. Его жена и сын в очередной раз уезжают за город на каникулы. Недолго длится одиночество Ричарда, неожиданно на его балкон падает огромный горшок с томатами, и виной этому соседка с верхнего этажа, белокурая рекламная модель.

Ричард предлагает красотке зайти к нему в гости и что-нибудь выпить. Шикарная блондинка в глубоком декольте, не давая соседу опомниться, появляется в его квартире с бутылкой шампанского в руке…

С этой минуты богатое воображение героя рисует не только сказочные картины завоевания сердца соблазнительной красавицы, но и унизительные сцены разоблачения женой его неверности…
Изображение

Качество: BDRip
Формат: MKV
Видео кодек: AVC
Аудио кодек: AC-3
Видео: 1 920 x 752 @ 23.976fps ~ 7 270 kbps
Аудио: Аудио #1 Russian: AC-3 6Ch 48KHz ~640 Kbps [Дубляж, 20 Век Фокс СНГ]
Субтитры: Русские, Английские
Знаете ли вы, что:
Знаменитый эпизод, в котором внезапный порыв воздуха из вентиляционного люка взметает вверх юбку Мэрилин Монро, первоначально снимался на Манхэттене, на углу 52-й улицы и Лексингтон-авеню, 15 сен­тября 1954 года в час ночи. 5000 зевак свистели и улюлюкали, когда Монро в очередной раз срывала дубль, забывая слова. Все это происходило на глазах у Джо Ди Маджо, тогдашнего супруга актрисы. Отснятый материал так и не появился в картине, поскольку его нельзя было использовать из-за шума толпы. Режиссер фильма Билли Уайлдер переснял эту сцену в павильоне студии 20th Century Fox. Чтобы добиться нужного результата, ему пришлось сделать еще 40 дублей.
По иронии судьбы, именно в то время, когда проходили съемки этой кар­тины, девятимесячный брак Монро и Ди Маджо распался.
Во время съемок Монро часто ошибалась, путала и забывала слова, из-за чего приходилось делать по несколько десятков дублей. В результате производство картины затянулось, а ее бюджет раздулся до $3,2 млн, до­вольно большой суммы для того времени.
Увидев кинопробы Уолтера Мэттау на роль Ричарда Шермана, Билли Уайлдер понял, что нашел нужного ему актера. Однако руководители студии не захотели рисковать — приглашая на главную роль дебютанта. И тогда Уайлдер остановил свой выбор на Томе Юэлле, сыгравшем Шермана в бродвейской постановке пье­сы Джорджа Аксельрода, положенной в основу фильма.
Права на экранизацию пьесы приобрела Paramount, но после того, как из этой студии ушел Билли Уайлдер, проект оказался у 20th Century Fox.
Первым режиссером, которому было предложено снять эту ленту, был Джордж Кьюкор («Газовый свет», «Давай займемся любовью», «Филадельфийская исто­рия», «Моя прекрасная леди»). Но он отказался от этого проекта.
Свернуть


Скриншоты
Изображение
Изображение
Изображение
Свернуть


MediaInfo
Общее
Уникальный идентификатор : 214558065070586537919799564919599862376 (0xA16A6156F1E024BB8595FB4CFF391268)
Полное имя : Seven Year Itch.1955.BDRip.1080p.Rus.mkv
Формат : Matroska
Версия формата : Version 4 / Version 2
Размер файла : 5,77 Гбайт
Продолжительность : 1 ч. 44 м.
Общий поток : 7911 Кбит/сек
Название фильма : Зуд седьмого года (The Seven Year Itch) 1955
Дата кодирования : UTC 2010-02-22 21:41:31
Программа кодирования : mkvmerge v5.9.0 ('On The Loose') built on Dec 9 2012 15:37:01
Библиотека кодирования : libebml v1.3.0 + libmatroska v1.4.0

Видео
Идентификатор : 1
Формат : AVC
Формат/Информация : Advanced Video Codec
Профиль формата : High@L4.1
Параметр CABAC формата : Да
Параметр ReFrames формата : 5 кадров
Идентификатор кодека : V_MPEG4/ISO/AVC
Продолжительность : 1 ч. 44 м.
Битрейт : 7270 Кбит/сек
Ширина : 1920 пикселей
Высота : 752 пикселя
Соотношение сторон : 2,553
Режим частоты кадров : Постоянный
Частота кадров : 23,976 кадра/сек
Цветовое пространство : YUV
Субдискретизация насыщенности : 4:2:0
Битовая глубина : 8 бит
Тип развёртки : Прогрессивная
Бит/(Пиксели*Кадры) : 0.210
Размер потока : 5,19 Гбайт (90%)
Библиотека кодирования : x264 core 128 r2216M 198a7ea
Настройки программы : cabac=1 / ref=5 / deblock=1:0:0 / analyse=0x3:0x133 / me=umh / subme=10 / psy=1 / psy_rd=1.00:0.00 / mixed_ref=1 / me_range=32 / chroma_me=1 / trellis=2 / 8x8dct=1 / cqm=0 / deadzone=21,11 / fast_pskip=0 / chroma_qp_offset=-2 / threads=4 / lookahead_threads=1 / sliced_threads=0 / nr=0 / decimate=0 / interlaced=0 / bluray_compat=0 / constrained_intra=0 / bframes=10 / b_pyramid=2 / b_adapt=2 / b_bias=0 / direct=3 / weightb=1 / open_gop=0 / weightp=2 / keyint=240 / keyint_min=23 / scenecut=40 / intra_refresh=0 / rc=2pass / mbtree=0 / bitrate=7270 / ratetol=1.0 / qcomp=0.60 / qpmin=10 / qpmax=69 / qpstep=4 / cplxblur=20.0 / qblur=0.5 / ip_ratio=1.40 / pb_ratio=1.30 / aq=1:1.00
Default : Да
Forced : Нет

Аудио
Идентификатор : 2
Формат : AC-3
Формат/Информация : Audio Coding 3
Расширение режима : CM (complete main)
Параметр Endianness формата : Big
Идентификатор кодека : A_AC3
Продолжительность : 1 ч. 44 м.
Вид битрейта : Постоянный
Битрейт : 640 Кбит/сек
Каналы : 6 каналов
Расположение каналов : Front: L C R, Side: L R, LFE
Частота : 48,0 КГц
Битовая глубина : 16 бит
Метод сжатия : С потерями
Задержка видео : 59 мс.
Размер потока : 478 Мбайт (8%)
Заголовок : Дубляж, 20 Век Фокс СНГ
Язык : Russian
Default : Да
Forced : Нет

Текст #1
Идентификатор : 3
Формат : UTF-8
Идентификатор кодека : S_TEXT/UTF8
Идентификатор кодека/Информация : UTF-8 Plain Text
Язык : Russian
Default : Нет
Forced : Нет

Текст #2
Идентификатор : 4
Формат : UTF-8
Идентификатор кодека : S_TEXT/UTF8
Идентификатор кодека/Информация : UTF-8 Plain Text
Язык : English
Default : Нет
Forced : Нет
Свернуть
Не в сети
Профиль  
 Добавлено: 2013-06-21 21:08 (спустя 11 часов)
Аватара пользователя
Стаж: 6 лет 1 месяц
Сообщений: 14
Спасибок: 13
Лайков: 5
Встану на раздачу утром 22.06.
Прошу потерпеть!
Не в сети
Профиль  
Начать новую темуОтветить на тему  [ Сообщений: 2 ] 
Вы не можете начинать темы
Вы не можете отвечать на сообщения
Вы не можете редактировать свои сообщения
Вы не можете удалять свои сообщения