Правила форума

  • В этом разделе создание новых тем Запрещено.
  • Для создания новых тем пользуйтесь Корневым разделом DVD и HD фильмы.
Начать новую темуОтветить на тему  [ Сообщений: 4 ] 
Торрент файл
Размер: 4.66 GB • Зарегистрирован: 4 года • Статус: Проверено
Скачан: 93 раза • Желающих скачать: 0 • Поблагодарили: 23 раза
 Раздают: 0  |  0 KB/s  ]   Качают: 0  |  0 KB/s  ] 
 Полного источника не было 2 года 8 месяцев 
Сообщения
 Добавлено: 2012-12-03 20:03
Модератор релиз-группы
Аватара пользователя
Стаж: 6 лет 5 месяцев
Возраст: 25
Сообщений: 622
Спасибок: 10257
Лайков: 7
Звери дикого Юга / Beasts of the Southern Wild

Изображение


Год выпуска: 2012
Страна: США
Жанр: фэнтези, драма
Продолжительность: 1:33:19
Перевод: Профессиональный (многоголосый закадровый) (НТВ+)
Субтитры: Нет

Режиссёр: Бен Зайтлин
В ролях: Кувенжане Уоллис, Дуайт Генри, Леви Истерли, Лоуелл Лэндис, Памела Харпер, Джина Монтанна, Эмбер Генри, Джоншел Александр, Николас Кларк, Джозеф Браун
Описание: Шестилетняя Хашпаппи живет с отцом Винком в общине на краю мира. Они проводят свои дни, плавая в поисках рыбы в некоем подобии лодки, сделанной из остова пикапа. И пусть Винк суровый отец, зато его дочь будет подготовлена к выживанию в одиночку, когда его не станет. Однажды Винка скашивает непонятная болезнь, а природа сходит с ума: тают ледники, поднимается вода, появляется армия доисторических животных. Здоровье Винка все хуже, и Хашпаппи решает отправится на поиски своей матери…
Изображение 7.7/10 (254 votes)
Изображение 7.7/10 (6,055 votes)

Качество: BDRip 720p
Формат: MKV
Видео: 5197 kbps, 1280*696 (16:9), 23.976 fps, AVC
Аудио: Rus, 448 kbps, 48.0 KHz, 16 bits, 6 ch, AC3
Аудио 2: English, 1510 kbps, 48.0 KHz, 24 bits, 6 ch, DTS
Субтитры: английские
BDInfo
General
Unique ID : 241858525479116415686060288393706959293 (0xB5F441F5849B916483CD0DC4425371BD)
Complete name : D:\ноут\Beasts.of.the.Southern.Wild.2012..mkv
Format : Matroska
File size : 4.66 GiB
Duration : 1h 33mn
Overall bit rate : 7 153 Kbps
Encoded date : UTC 2012-11-23 20:46:23
Writing application : mkvmerge v5.8.0 ('No Sleep / Pillow') built on Sep 2 2012 15:37:04
Writing library : libebml v1.2.3 + libmatroska v1.3.0

Video
ID : 1
Format : AVC
Format/Info : Advanced Video Codec
Format profile : High@L4.1
Format settings, CABAC : Yes
Format settings, ReFrames : 5 frames
Format settings, GOP : M=4, N=48
Codec ID : V_MPEG4/ISO/AVC
Duration : 1h 33mn
Bit rate : 5 197 Kbps
Width : 1 280 pixels
Height : 696 pixels
Display aspect ratio : 16:9
Frame rate : 23.976 fps
Color space : YUV
Chroma subsampling : 4:2:0
Bit depth : 8 bits
Scan type : Progressive
Bits/(Pixel*Frame) : 0.243
Stream size : 3.29 GiB (71%)
Title : SPARKS
Writing library : x264 core 129 r2230 1cffe9f
Encoding settings : cabac=1 / ref=5 / deblock=1:0:0 / analyse=0x3:0x133 / me=umh / subme=7 / psy=1 / psy_rd=1.00:0.00 / mixed_ref=1 / me_range=16 / chroma_me=1 / trellis=1 / 8x8dct=1 / cqm=0 / deadzone=21,11 / fast_pskip=0 / chroma_qp_offset=-2 / threads=24 / lookahead_threads=4 / sliced_threads=0 / nr=0 / decimate=1 / interlaced=0 / bluray_compat=0 / constrained_intra=0 / bframes=3 / b_pyramid=2 / b_adapt=1 / b_bias=0 / direct=1 / weightb=1 / open_gop=0 / weightp=2 / keyint=250 / keyint_min=23 / scenecut=40 / intra_refresh=0 / rc_lookahead=40 / rc=2pass / mbtree=1 / bitrate=5197 / ratetol=1.0 / qcomp=0.60 / qpmin=0 / qpmax=69 / qpstep=4 / cplxblur=20.0 / qblur=0.5 / ip_ratio=1.40 / aq=1:1.00
Language : English

Audio #1
ID : 2
Format : AC-3
Format/Info : Audio Coding 3
Mode extension : CM (complete main)
Codec ID : A_AC3
Duration : 1h 33mn
Bit rate mode : Constant
Bit rate : 448 Kbps
Channel(s) : 6 channels
Channel positions : Front: L C R, Side: L R, LFE
Sampling rate : 48.0 KHz
Bit depth : 16 bits
Compression mode : Lossy
Stream size : 299 MiB (6%)
Title : MVO [НТВ+]
Language : Russian

Audio #2
ID : 3
Format : DTS
Format/Info : Digital Theater Systems
Codec ID : A_DTS
Duration : 1h 33mn
Bit rate mode : Constant
Bit rate : 1 510 Kbps
Channel(s) : 6 channels
Channel positions : Front: L C R, Side: L R, LFE
Sampling rate : 48.0 KHz
Bit depth : 24 bits
Compression mode : Lossy
Stream size : 1 008 MiB (21%)
Language : English

Text
ID : 4
Format : UTF-8
Codec ID : S_TEXT/UTF8
Codec ID/Info : UTF-8 Plain Text
Language : English

Menu
00:00:00.000 : en:00:00:00.000
00:04:02.951 : en:00:04:02.951
00:08:15.453 : en:00:08:15.453
00:12:39.050 : en:00:12:39.050
00:16:14.432 : en:00:16:14.432
00:19:55.903 : en:00:19:55.903
00:24:01.315 : en:00:24:01.315
00:27:47.082 : en:00:27:47.082
00:30:34.041 : en:00:30:34.041
00:33:47.567 : en:00:33:47.567
00:38:00.862 : en:00:38:00.862
00:43:25.937 : en:00:43:25.937
00:46:23.030 : en:00:46:23.030
00:50:59.348 : en:00:50:59.348
00:53:35.504 : en:00:53:35.504
01:00:00.680 : en:01:00:00.680
01:01:56.421 : en:01:01:56.421
01:06:22.604 : en:01:06:22.604
01:09:16.778 : en:01:09:16.778
01:13:32.533 : en:01:13:32.533
01:19:54.039 : en:01:19:54.039
01:22:44.793 : en:01:22:44.793
01:25:37.799 : en:01:25:37.799
01:27:52.934 : en:01:27:52.934
Свернуть

Скриншоты
Изображение
Изображение
Изображение
Изображение
Свернуть
_________________
Изображение
Не в сети
Профиль  
 Добавлено: 2013-02-09 13:41 (спустя 2 месяца 5 дней)
Аватара пользователя
Стаж: 7 лет 5 месяцев
Сообщений: 54
Лайков: 1
хмм.. странный формат mkw. или может я не знаю что про него?)
Не в сети
Профиль  
 Добавлено: 2013-02-09 20:03 (спустя 6 часов)
Аватара пользователя
Стаж: 9 лет 1 месяц
Возраст: 31
Сообщений: 982
Спасибок: 1800
Лайков: 17
Slovetskii, ну и как его смотреть??? У меня телик не знает такого формата.

Добавлено спустя 30 секунд:
Ручная переписка в mkv тоже не помогает.

Добавлено спустя 3 минуты:

Slovetskii:

Субтитры: Нет
Как нет??? Когда есть...
Ёперный блин.
Не в сети
Профиль  
 Добавлено: 2013-02-11 13:19 (спустя 1 день 17 часов)
Аватара пользователя
Стаж: 8 лет 11 месяцев
Сообщений: 198
Спасибо, очень сильный фильм.
Не в сети
Профиль  
Начать новую темуОтветить на тему  [ Сообщений: 4 ] 
Вы не можете начинать темы
Вы не можете отвечать на сообщения
Вы не можете редактировать свои сообщения
Вы не можете удалять свои сообщения