Правила форума

  • В этом разделе создание новых тем Запрещено.
  • Для создания новых тем пользуйтесь Корневым разделом DVD и HD фильмы.
Начать новую темуОтветить на тему  [ Сообщений: 21 ] 
Торрент файл
Размер: 64.75 GB • Зарегистрирован: 5 лет 2 месяца • Статус: Проверено
Скачан: 595 раз • Желающих скачать: 0 • Поблагодарили: 223 раза
 Раздают: 7  |  0 KB/s  ]   Качают: 2  |  0 KB/s  ] 
Сообщения
 Добавлено: 2011-10-04 17:34
Модератор релиз-группы
Аватара пользователя
Стаж: 9 лет 1 месяц
Возраст: 97
Сообщений: 11660
Спасибок: 6532
Лайков: 269
Звездные войны: Сага
Star Wars: The Complete Saga

Изображение



Эпизод I
Звездные войны: Эпизод 1 - Скрытая угроза
Star Wars: Episode I - The Phantom Menace

Изображение

Страна: США
Жанр: фантастика, боевик, приключения
Год выхода: 1999
Продолжительность: 02:16:10
Перевод: профессиональный (полное дублирование)
Субтитры: Русские
Режиссер: Джордж Лукас / George Lucas
Сценарий: Джордж Лукас / George Lucas
В ролях: Лиам Нисон, Юэн МакГрегор, Натали Портман, Джейк Ллойд, Иэн МакДайармид, Пернилла Аугуст, Оливер Форд Дэвис, Хью Куарши, Ахмед Бест, Энтони Дэниелс, Сэмюэл Л. Джексон, София Коппола, Кира Найтли

Описание: Мирная и процветающая планета Набу. Торговая федерация, не желая платить налоги, вступает в прямой конфликт с королевой Амидалой, правящей на планете, что приводит к войне. На стороне королевы и республики в ней участвуют два рыцаря-джедая: учитель и ученик, Квай-Гон-Джин и Оби-Ван Кеноби…
Качество: BDRip
Формат: mkv
Видео: MPEG-4 AVC Video /11.6 Mbps / 1080p / 23,976 fps / 16:9 / High Profile 4.0
Аудио: Russian / DTS Audio / 5.1 / 48 kHz / 768 kbps / 24-bit
Субтитры: Русские
скриншоты
Изображение

Изображение

Изображение

Изображение
Свернуть
mi
Format : Matroska
Format version : Version 2
File size : 11.8 GiB
Duration : 2h 16mn
Overall bit rate : 12.4 Mbps
Encoded date : UTC 2011-10-03 13:14:14
Writing application : mkvmerge v5.0.0 ('Die Wahre Liebe') built on Sep 25 2011 20:33:49
Writing library : libebml v1.2.2 + libmatroska v1.3.0

Video
ID : 1
Format : AVC
Format/Info : Advanced Video Codec
Format profile : High@L4.0
Format settings, CABAC : Yes
Format settings, ReFrames : 3 frames
Codec ID : V_MPEG4/ISO/AVC
Duration : 2h 16mn
Bit rate mode : Variable
Bit rate : 11.6 Mbps
Maximum bit rate : 20.0 Mbps
Width : 1 920 pixels
Height : 1 080 pixels
Display aspect ratio : 16:9
Frame rate : 23.976 fps
Color space : YUV
Chroma subsampling : 4:2:0
Bit depth : 8 bits
Scan type : Progressive
Bits/(Pixel*Frame) : 0.233
Stream size : 10.8 GiB (92%)
Writing library : x264 core 93 r1542M 5b86182
Encoding settings : cabac=1 / ref=4 / deblock=1:0:0 / analyse=0x3:0x12 / me=hex / subme=2 / psy=1 / psy_rd=0.00:0.00 / mixed_ref=0 / me_range=16 / chroma_me=1 / trellis=0 / 8x8dct=1 / cqm=0 / deadzone=21,11 / fast_pskip=1 / chroma_qp_offset=0 / threads=3 / sliced_threads=0 / nr=0 / decimate=1 / interlaced=0 / constrained_intra=0 / bframes=3 / b_pyramid=1 / b_adapt=1 / b_bias=0 / direct=1 / wpredb=1 / wpredp=0 / keyint=48 / keyint_min=8 / scenecut=40 / intra_refresh=0 / rc_lookahead=48 / rc=abr / mbtree=0 / bitrate=11599 / ratetol=1.0 / qcomp=0.50 / qpmin=10 / qpmax=51 / qpstep=4 / vbv_maxrate=20000 / vbv_bufsize=25000 / ip_ratio=1.10 / pb_ratio=1.10 / aq=1:1.00 / nal_hrd=vbr
Language : English

Audio
ID : 2
Format : DTS
Format/Info : Digital Theater Systems
Codec ID : A_DTS
Duration : 2h 16mn
Bit rate mode : Constant
Bit rate : 755 Kbps
Channel(s) : 6 channels
Channel positions : Front: L C R, Side: L R, LFE
Sampling rate : 48.0 KHz
Bit depth : 24 bits
Compression mode : Lossy
Stream size : 735 MiB (6%)
Title : Dubbed
Language : Russian

Text #1
ID : 3
Format : PGS
Muxing mode : zlib
Codec ID : S_HDMV/PGS
Codec ID/Info : The same subtitle format used on BDs/HD-DVDs

Text #2
ID : 4
Format : PGS
Muxing mode : zlib
Codec ID : S_HDMV/PGS
Codec ID/Info : The same subtitle format used on BDs/HD-DVDs

Text #3
ID : 5
Format : PGS
Muxing mode : zlib
Codec ID : S_HDMV/PGS
Codec ID/Info : The same subtitle format used on BDs/HD-DVDs

Свернуть
Свернуть

Эпизод 2
Звездные войны: Эпизод 2 - Атака клонов
Star Wars: Episode II - Attack of the Clones

Изображение

Страна: США
Жанр: фантастика, боевик, приключения
Год выхода: 2002
Продолжительность: 02:22:27
Перевод: профессиональный (полное дублирование)
Субтитры: Русские
Режиссер: Джордж Лукас / George Lucas
Сценарий: Джордж Лукас, Джонатан Хейлс
В ролях: Юэн МакГрегор, Натали Портман, Хейден Кристенсен, Кристофер Ли, Сэмюэл Л. Джексон, Фрэнк Оз, Иэн МакДайармид, Пернилла Аугуст, Темуэра Моррисон, Дэниэл Логан

Описание: Действие разворачивается через 10 лет после событий, описанных в первом эпизоде знаменитой саги. Республика все глубже погружается в пучину противоречий и хаоса. Движение сепаратистов, представленное сотнями планет и могущественным альянсом корпораций, грозит стать новой угрозой для Галактики, с которой не смогут справиться даже джедаи.
Назревающий конфликт, заранее спланированный могущественными, но пока еще не разоблаченными силами, ведет к началу Клонических войн и к закату республики. Чтобы противостоять угрозе вселенских масштабов, Верховный канцлер Палпатин добивается консолидации власти в республике в своих руках и отдает приказ о создании республиканской армии для поддержки малочисленной группы джедаев в их борьбе с превосходящим противником.
Описание:
Мирная и процветающая планета Набу. Торговая федерация, не желая платить налоги, вступает в прямой конфликт с королевой Амидалой, правящей на планете, что приводит к войне. На стороне королевы и республики в ней участвуют два рыцаря-джедая: учитель и ученик, Квай-Гон-Джин и Оби-Ван Кеноби…
Качество: BDRip
Формат: MKV
Видео: MPEG-4 AVC Video / 9591 kbps / 1080p / 23,976 fps / 16:9 / High Profile 4.0
Аудио: Russian / DTS Audio / 5.1 / 48 kHz / 768 kbps / 24-bit
Субтитры: Русские
скриншоты
Изображение

Изображение

Изображение

Изображение
Свернуть
mi
Format : Matroska
Format version : Version 2
File size : 10.4 GiB
Duration : 2h 22mn
Overall bit rate : 10.4 Mbps
Encoded date : UTC 2011-10-03 18:46:53
Writing application : mkvmerge v5.0.0 ('Die Wahre Liebe') built on Sep 25 2011 20:33:49
Writing library : libebml v1.2.2 + libmatroska v1.3.0

Video
ID : 1
Format : AVC
Format/Info : Advanced Video Codec
Format profile : High@L4.0
Format settings, CABAC : Yes
Format settings, ReFrames : 3 frames
Codec ID : V_MPEG4/ISO/AVC
Duration : 2h 22mn
Bit rate mode : Variable
Bit rate : 9 591 Kbps
Maximum bit rate : 20.0 Mbps
Width : 1 920 pixels
Height : 1 080 pixels
Display aspect ratio : 16:9
Frame rate : 23.976 fps
Color space : YUV
Chroma subsampling : 4:2:0
Bit depth : 8 bits
Scan type : Progressive
Bits/(Pixel*Frame) : 0.193
Stream size : 9.42 GiB (91%)
Writing library : x264 core 93 r1542M 5b86182
Encoding settings : cabac=1 / ref=4 / deblock=1:0:0 / analyse=0x3:0x12 / me=hex / subme=2 / psy=1 / psy_rd=0.00:0.00 / mixed_ref=0 / me_range=16 / chroma_me=1 / trellis=0 / 8x8dct=1 / cqm=0 / deadzone=21,11 / fast_pskip=1 / chroma_qp_offset=0 / threads=3 / sliced_threads=0 / nr=0 / decimate=1 / interlaced=0 / constrained_intra=0 / bframes=3 / b_pyramid=1 / b_adapt=1 / b_bias=0 / direct=1 / wpredb=1 / wpredp=0 / keyint=48 / keyint_min=8 / scenecut=40 / intra_refresh=0 / rc_lookahead=48 / rc=abr / mbtree=0 / bitrate=9591 / ratetol=1.0 / qcomp=0.50 / qpmin=10 / qpmax=51 / qpstep=4 / vbv_maxrate=20000 / vbv_bufsize=25000 / ip_ratio=1.10 / pb_ratio=1.10 / aq=1:1.00 / nal_hrd=vbr
Language : English

Audio
ID : 2
Format : DTS
Format/Info : Digital Theater Systems
Codec ID : A_DTS
Duration : 2h 22mn
Bit rate mode : Constant
Bit rate : 755 Kbps
Channel(s) : 6 channels
Channel positions : Front: L C R, Side: L R, LFE
Sampling rate : 48.0 KHz
Bit depth : 24 bits
Compression mode : Lossy
Stream size : 769 MiB (7%)
Title : Dubbed
Language : Swedish

Text #1
ID : 3
Format : PGS
Muxing mode : zlib
Codec ID : S_HDMV/PGS
Codec ID/Info : The same subtitle format used on BDs/HD-DVDs
Language : Russian

Text #2
ID : 4
Format : PGS
Muxing mode : zlib
Codec ID : S_HDMV/PGS
Codec ID/Info : The same subtitle format used on BDs/HD-DVDs
Language : Russian

Text #3
ID : 5
Format : PGS
Muxing mode : zlib
Codec ID : S_HDMV/PGS
Codec ID/Info : The same subtitle format used on BDs/HD-DVDs
Language : Russian

Свернуть
Свернуть

Эпизод 3
Звездные войны: Эпизод 3 - Месть Ситхов
Star Wars: Episode III - Revenge of the Sith

Изображение


Страна: США
Жанр: фантастика, боевик, приключения
Год выхода: 2002
Продолжительность: 02:20:05
Перевод: профессиональный (полное дублирование)
Субтитры: Русские
Режиссер: Джордж Лукас
Сценарий: Джордж Лукас / George Lucas
В ролях: Юэн МакГрегор, Натали Портман, Хейден Кристенсен, Иэн МакДайармид, Сэмюэл Л. Джексон, Джимми Смитс, Фрэнк Оз, Энтони Дэниелс, Кристофер Ли, Киша Касл-Хьюз

Описание: Со времен, описанных во втором эпизоде, прошло 3 года. Энакин окончательно встает на темную сторону силы и превращается в Дарта Вейдера. Республика гибнет под ударами крепнущей Империи, Джедаи теряют контроль над галактикой, а Падме готовится к тому, чтобы стать матерью. Все эти события будут разворачиваться на фоне грандиозной битвы, знаменующей финал Клонических войн…
Качество: BDRip
Формат: mkv
Видео: MPEG-4 AVC Video / 10215 kbps / 1080p / 23,976 fps / 16:9 / High Profile 4.1
Аудио: Russian / DTS Audio / 5.1 / 48 kHz / 768 kbps / 24-bit
Субтитры: Русские
скриншоты
Изображение

Изображение

Изображение

Изображение

Свернуть
Mi
Format : Matroska
Format version : Version 2
File size : 10.7 GiB
Duration : 2h 20mn
Overall bit rate : 10.9 Mbps
Encoded date : UTC 2011-10-04 14:03:07
Writing application : mkvmerge v5.0.0 ('Die Wahre Liebe') built on Sep 25 2011 20:33:49
Writing library : libebml v1.2.2 + libmatroska v1.3.0

Video
ID : 1
Format : AVC
Format/Info : Advanced Video Codec
Format profile : High@L4.0
Format settings, CABAC : Yes
Format settings, ReFrames : 3 frames
Codec ID : V_MPEG4/ISO/AVC
Duration : 2h 20mn
Bit rate mode : Variable
Bit rate : 10.2 Mbps
Maximum bit rate : 20.0 Mbps
Width : 1 920 pixels
Height : 1 080 pixels
Display aspect ratio : 16:9
Frame rate : 23.976 fps
Color space : YUV
Chroma subsampling : 4:2:0
Bit depth : 8 bits
Scan type : Progressive
Bits/(Pixel*Frame) : 0.205
Stream size : 9.73 GiB (91%)
Writing library : x264 core 93 r1542M 5b86182
Encoding settings : cabac=1 / ref=4 / deblock=1:0:0 / analyse=0x3:0x12 / me=hex / subme=2 / psy=1 / psy_rd=0.00:0.00 / mixed_ref=0 / me_range=16 / chroma_me=1 / trellis=0 / 8x8dct=1 / cqm=0 / deadzone=21,11 / fast_pskip=1 / chroma_qp_offset=0 / threads=3 / sliced_threads=0 / nr=0 / decimate=1 / interlaced=0 / constrained_intra=0 / bframes=3 / b_pyramid=1 / b_adapt=1 / b_bias=0 / direct=1 / wpredb=1 / wpredp=0 / keyint=48 / keyint_min=8 / scenecut=40 / intra_refresh=0 / rc_lookahead=48 / rc=abr / mbtree=0 / bitrate=10215 / ratetol=1.0 / qcomp=0.50 / qpmin=10 / qpmax=51 / qpstep=4 / vbv_maxrate=20000 / vbv_bufsize=25000 / ip_ratio=1.10 / pb_ratio=1.10 / aq=1:1.00 / nal_hrd=vbr
Language : English

Audio
ID : 2
Format : DTS
Format/Info : Digital Theater Systems
Codec ID : A_DTS
Duration : 2h 20mn
Bit rate mode : Constant
Bit rate : 755 Kbps
Channel(s) : 6 channels
Channel positions : Front: L C R, Side: L R, LFE
Sampling rate : 48.0 KHz
Bit depth : 24 bits
Compression mode : Lossy
Delay relative to video : 3ms
Stream size : 756 MiB (7%)
Title : Dubbed
Language : Russian

Text #1
ID : 3
Format : PGS
Muxing mode : zlib
Codec ID : S_HDMV/PGS
Codec ID/Info : The same subtitle format used on BDs/HD-DVDs
Language : Russian

Text #2
ID : 4
Format : PGS
Muxing mode : zlib
Codec ID : S_HDMV/PGS
Codec ID/Info : The same subtitle format used on BDs/HD-DVDs
Language : Russian

Text #3
ID : 5
Format : PGS
Muxing mode : zlib
Codec ID : S_HDMV/PGS
Codec ID/Info : The same subtitle format used on BDs/HD-DVDs
Language : Russian

Свернуть
Свернуть

Эпизод 4
Звездные войны: Эпизод 4 - Новая надежда
Star Wars: Episode IV - A New Hope

Изображение

Страна: США
Жанр: фантастика, боевик, приключения
Год выхода: 1977
Продолжительность: 02:04:44
Перевод: профессиональный (полное дублирование)
Субтитры: русские
Режиссер: Джордж Лукас / George Lucas
Сценарий: Джордж Лукас / George Lucas
хркъ
В ролях: Марк Хэмилл, Харрисон Форд, Кэрри Фишер, Питер Кашинг, Алек Гиннесс, Энтони Дэниелс, Кенни Бейкер, Питер Мейхью, Дэвид Праус, Джеймс Эрл Джонс

Описание:Татуин. Планета-пустыня. Уже постаревший рыцарь Джедай Оби Ван Кеноби спасает молодого Люка Скайуокера, когда тот пытается отыскать пропавшего дроида. С этого момента Люк осознает свое истинное назначение: он один из рыцарей Джедай. В то время как гражданская война охватила галактику, а войска повстанцев ведут бои против сил злого Императора, к Люку и Оби Вану присоединяется отчаянный пилот-наемник Хан Соло, и в сопровождении двух дроидов, R2D2 и C-3PO, этот необычный отряд отправляется на поиски предводителя повстанцев — принцессы Леи. Героям предстоит отчаянная схватка с устрашающим Дартом Вейдером — правой рукой Императора и его секретным оружием — «Звездой Смерти».
Качество: BDRip
Формат: MKV
Видео кодек: AVC
Аудио кодек: DTS
Видео: MPEG-4 AVC Video/ ~ 11 400 Kbps, 1080p / 23,976 fps / 16:9 / High Profile 4.0
Аудио: Russian / DTS Audio / 5.1 / 48 kHz / 768 kbps / 24-bit
Субтитры: Русские

скриншоты
Изображение

Изображение

Изображение

Изображение
Свернуть
mi
Format : Matroska
Format version : Version 2
File size : 10.7 GiB
Duration : 2h 4mn
Overall bit rate : 12.2 Mbps
Encoded date : UTC 2011-10-03 14:56:53
Writing application : mkvmerge v5.0.0 ('Die Wahre Liebe') built on Sep 25 2011 20:33:49
Writing library : libebml v1.2.2 + libmatroska v1.3.0

Video
ID : 1
Format : AVC
Format/Info : Advanced Video Codec
Format profile : High@L4.0
Format settings, CABAC : Yes
Format settings, ReFrames : 3 frames
Codec ID : V_MPEG4/ISO/AVC
Duration : 2h 4mn
Bit rate mode : Variable
Bit rate : 11.4 Mbps
Maximum bit rate : 20.0 Mbps
Width : 1 920 pixels
Height : 1 080 pixels
Display aspect ratio : 16:9
Frame rate : 23.976 fps
Color space : YUV
Chroma subsampling : 4:2:0
Bit depth : 8 bits
Scan type : Progressive
Bits/(Pixel*Frame) : 0.230
Stream size : 9.80 GiB (92%)
Writing library : x264 core 93 r1542M 5b86182
Encoding settings : cabac=1 / ref=4 / deblock=1:0:0 / analyse=0x3:0x12 / me=hex / subme=2 / psy=1 / psy_rd=0.00:0.00 / mixed_ref=0 / me_range=16 / chroma_me=1 / trellis=0 / 8x8dct=1 / cqm=0 / deadzone=21,11 / fast_pskip=1 / chroma_qp_offset=0 / threads=3 / sliced_threads=0 / nr=0 / decimate=1 / interlaced=0 / constrained_intra=0 / bframes=3 / b_pyramid=1 / b_adapt=1 / b_bias=0 / direct=1 / wpredb=1 / wpredp=0 / keyint=48 / keyint_min=8 / scenecut=40 / intra_refresh=0 / rc_lookahead=48 / rc=abr / mbtree=0 / bitrate=11450 / ratetol=1.0 / qcomp=0.50 / qpmin=10 / qpmax=51 / qpstep=4 / vbv_maxrate=20000 / vbv_bufsize=25000 / ip_ratio=1.10 / pb_ratio=1.10 / aq=1:1.00 / nal_hrd=vbr
Language : English

Audio
ID : 2
Format : DTS
Format/Info : Digital Theater Systems
Codec ID : A_DTS
Duration : 2h 4mn
Bit rate mode : Constant
Bit rate : 755 Kbps
Channel(s) : 6 channels
Channel positions : Front: L C R, Side: L R, LFE
Sampling rate : 48.0 KHz
Bit depth : 24 bits
Compression mode : Lossy
Stream size : 673 MiB (6%)
Title : Dubbed
Language : Russian

Text
ID : 3
Format : PGS
Muxing mode : zlib
Codec ID : S_HDMV/PGS
Codec ID/Info : The same subtitle format used on BDs/HD-DVDs
Language : Russian

Свернуть
Свернуть

Эпизод 5
Звездные войны: Эпизод 5 - Империя наносит ответный удар
Star Wars: Episode V - The Empire Strikes Back

Изображение


Страна: США
Жанр: фантастика, боевик, приключения
Год выхода: 1980
Продолжительность: 02:07:21
Перевод: профессиональный (полное дублирование)
Субтитры: Русские
Режиссер: Ирвин Кершнер / Irvin Kershner
Сценарий: Джордж Лукас, Ли Брэкетт, Лоуренс Кэздан
В ролях: Марк Хэмилл, Харрисон Форд, Кэрри Фишер, Билли Ди Уильямс, Энтони Дэниелс, Дэвид Праус, Питер Мейхью, Кенни Бейкер, Фрэнк Оз, Алек Гиннесс

Описание: Борьба за Галактику обостряется в пятом эпизоде космической саги. Войска Императора начинают массированную атаку на повстанцев и их союзников. Хан Соло и принцесса Лейя укрываются в Заоблачном Городе, в котором их и захватывает Дарт Вейдер, в то время как Люк Скайуокер находится на таинственной планете джунглей Дагобар. Там Мастер — джедай Йода обучает молодого рыцаря навыкам обретения Силы. Люк даже не предполагает, как скоро ему придется воспользоваться знаниями старого Мастера: впереди битва с превосходящими силами Императора и смертельный поединок с Дартом Вейдером.
Качество: BDRip
Формат: mkv
Видео: MPEG-4 AVC Video / ~ 12 000 kbps / 1080p / 23,976 fps / 16:9 / High Profile 4.0
Аудио: Russian / DTS Audio / 5.1 / 48 kHz / 768 kbps / 24-bit
Субтитры: Русские
скриншоты
Изображение

Изображение

Изображение

Изображение
Свернуть
mi
Format : Matroska
Format version : Version 2
File size : 10.7 GiB
Duration : 2h 7mn
Overall bit rate : 12.0 Mbps
Encoded date : UTC 2011-10-04 07:13:24
Writing application : mkvmerge v5.0.0 ('Die Wahre Liebe') built on Sep 25 2011 20:33:49
Writing library : libebml v1.2.2 + libmatroska v1.3.0

Video
ID : 1
Format : AVC
Format/Info : Advanced Video Codec
Format profile : High@L4.0
Format settings, CABAC : Yes
Format settings, ReFrames : 3 frames
Codec ID : V_MPEG4/ISO/AVC
Duration : 2h 7mn
Bit rate mode : Variable
Bit rate : 11.2 Mbps
Maximum bit rate : 20.0 Mbps
Width : 1 920 pixels
Height : 1 080 pixels
Display aspect ratio : 16:9
Frame rate : 23.976 fps
Color space : YUV
Chroma subsampling : 4:2:0
Bit depth : 8 bits
Scan type : Progressive
Bits/(Pixel*Frame) : 0.226
Stream size : 9.82 GiB (92%)
Writing library : x264 core 93 r1542M 5b86182
Encoding settings : cabac=1 / ref=4 / deblock=1:0:0 / analyse=0x3:0x12 / me=hex / subme=2 / psy=1 / psy_rd=0.00:0.00 / mixed_ref=0 / me_range=16 / chroma_me=1 / trellis=0 / 8x8dct=1 / cqm=0 / deadzone=21,11 / fast_pskip=1 / chroma_qp_offset=0 / threads=3 / sliced_threads=0 / nr=0 / decimate=1 / interlaced=0 / constrained_intra=0 / bframes=3 / b_pyramid=1 / b_adapt=1 / b_bias=0 / direct=1 / wpredb=1 / wpredp=0 / keyint=48 / keyint_min=8 / scenecut=40 / intra_refresh=0 / rc_lookahead=48 / rc=abr / mbtree=0 / bitrate=11212 / ratetol=1.0 / qcomp=0.50 / qpmin=10 / qpmax=51 / qpstep=4 / vbv_maxrate=20000 / vbv_bufsize=25000 / ip_ratio=1.10 / pb_ratio=1.10 / aq=1:1.00 / nal_hrd=vbr
Language : English

Audio
ID : 2
Format : DTS
Format/Info : Digital Theater Systems
Codec ID : A_DTS
Duration : 2h 7mn
Bit rate mode : Constant
Bit rate : 755 Kbps
Channel(s) : 6 channels
Channel positions : Front: L C R, Side: L R, LFE
Sampling rate : 48.0 KHz
Bit depth : 24 bits
Compression mode : Lossy
Delay relative to video : 3ms
Stream size : 687 MiB (6%)
Title : Dubbed
Language : Russian

Text #1
ID : 3
Format : PGS
Muxing mode : zlib
Codec ID : S_HDMV/PGS
Codec ID/Info : The same subtitle format used on BDs/HD-DVDs
Language : Russian

Text #2
ID : 4
Format : PGS
Muxing mode : zlib
Codec ID : S_HDMV/PGS
Codec ID/Info : The same subtitle format used on BDs/HD-DVDs
Language : Russian

Свернуть
Свернуть

Эпизод 6
Звездные войны: Эпизод 6 - Возвращение Джедая
Star Wars: Episode VI - Return of the Jedi

Изображение


Страна: США
Жанр: фантастика, боевик, приключения
Год выхода: 1983
Продолжительность: 02:16:10
Перевод: профессиональный (полное дублирование)
Субтитры: Русские
Режиссер: Ричард Маркуэнд / Richard Marquand
Сценарий: Лоуренс Кэздан, Джордж Лукас
В ролях: Марк Хэмилл, Харрисон Форд, Кэрри Фишер, Билли Ди Уильямс, Энтони Дэниелс, Питер Мейхью, Себастьян Шоу, Иэн МакДайармид, Фрэнк Оз, Джеймс Эрл Джонс

Описание: В заключительном шестом эпизоде «Звездных войн» Дарт Вейдер создает вторую «Звезду Смерти». Он объединяет все силы зла, чтобы с помощью этого смертоносного оружия нанести последний сокрушительный удар по повстанцам и их союзникам. Люк Скайуокер вместе с принцессой Лейей и верными дроидами R2D2 и C-3PO отправляется спасать своего друга Хана Соло, который попал в плен к отвратительному Джаббе Хатту — могущественному повелителю преступников. Повстанцы высаживаются на планету Эндор, чтобы оттуда вместе с Люком и его отрядом предпринять последнюю атаку на Имперский флот, атаку, от которой зависит судьба Галактики. В этом эпизоде Люк Скайуокер и Дарт Вейдер встречаются в последний раз… ибо из поединка между отцом и сыном живым выйдет только один…
Качество: BDRip
Формат:mkv
Видео: MPEG-4 AVC Video / ~ 11 200 kbps / 1080p / 23,976 fps / 16:9 / High Profile 4.0
Аудио: Russian / DTS Audio / 5.1 / 48 kHz / 768 kbps / 24-bit
Субтитры: Русские

скриншоты
Изображение

Изображение

Изображение

Изображение
Свернуть
Mi
Format : Matroska
Format version : Version 2
File size : 10.5 GiB
Duration : 2h 14mn
Overall bit rate : 11.2 Mbps
Encoded date : UTC 2011-10-04 04:54:55
Writing application : mkvmerge v5.0.0 ('Die Wahre Liebe') built on Sep 25 2011 20:33:49
Writing library : libebml v1.2.2 + libmatroska v1.3.0

Video
ID : 1
Format : AVC
Format/Info : Advanced Video Codec
Format profile : High@L4.0
Format settings, CABAC : Yes
Format settings, ReFrames : 3 frames
Codec ID : V_MPEG4/ISO/AVC
Duration : 2h 14mn
Bit rate mode : Variable
Bit rate : 10.3 Mbps
Maximum bit rate : 20.0 Mbps
Width : 1 920 pixels
Height : 1 080 pixels
Display aspect ratio : 16:9
Frame rate : 23.976 fps
Color space : YUV
Chroma subsampling : 4:2:0
Bit depth : 8 bits
Scan type : Progressive
Bits/(Pixel*Frame) : 0.207
Stream size : 9.61 GiB (91%)
Writing library : x264 core 93 r1542M 5b86182
Encoding settings : cabac=1 / ref=4 / deblock=1:0:0 / analyse=0x3:0x12 / me=hex / subme=2 / psy=1 / psy_rd=0.00:0.00 / mixed_ref=0 / me_range=16 / chroma_me=1 / trellis=0 / 8x8dct=1 / cqm=0 / deadzone=21,11 / fast_pskip=1 / chroma_qp_offset=0 / threads=3 / sliced_threads=0 / nr=0 / decimate=1 / interlaced=0 / constrained_intra=0 / bframes=3 / b_pyramid=1 / b_adapt=1 / b_bias=0 / direct=1 / wpredb=1 / wpredp=0 / keyint=48 / keyint_min=8 / scenecut=40 / intra_refresh=0 / rc_lookahead=48 / rc=abr / mbtree=0 / bitrate=10315 / ratetol=1.0 / qcomp=0.50 / qpmin=10 / qpmax=51 / qpstep=4 / vbv_maxrate=20000 / vbv_bufsize=25000 / ip_ratio=1.10 / pb_ratio=1.10 / aq=1:1.00 / nal_hrd=vbr
Language : English

Audio
ID : 2
Format : DTS
Format/Info : Digital Theater Systems
Codec ID : A_DTS
Duration : 2h 14mn
Bit rate mode : Constant
Bit rate : 755 Kbps
Channel(s) : 6 channels
Channel positions : Front: L C R, Side: L R, LFE
Sampling rate : 48.0 KHz
Bit depth : 24 bits
Compression mode : Lossy
Delay relative to video : 7ms
Stream size : 727 MiB (7%)
Title : Dubbed
Language : Russian

Text #1
ID : 3
Format : PGS
Muxing mode : zlib
Codec ID : S_HDMV/PGS
Codec ID/Info : The same subtitle format used on BDs/HD-DVDs
Language : Russian

Text #2
ID : 4
Format : PGS
Muxing mode : zlib
Codec ID : S_HDMV/PGS
Codec ID/Info : The same subtitle format used on BDs/HD-DVDs
Language : Russian

Text #3
ID : 5
Format : PGS
Muxing mode : zlib
Codec ID : S_HDMV/PGS
Codec ID/Info : The same subtitle format used on BDs/HD-DVDs
Language : Russian

Свернуть
Свернуть

Изображение

_________________
Изображение
Не в сети
Профиль  
 Добавлено: 2011-10-24 18:01 (спустя 20 дней)
Аватара пользователя
Стаж: 7 лет 9 месяцев
Сообщений: 11
Есть ли внутри отдельно дорога с force-сабами?
Не в сети
Профиль  
 Добавлено: 2011-12-04 17:41 (спустя 1 месяц 10 дней)
Модератор релиз-группы
Аватара пользователя
Стаж: 9 лет 1 месяц
Возраст: 97
Сообщений: 11660
Спасибок: 6532
Лайков: 269

Dr.Green0007:

Есть ли
Изображение
_________________
Изображение
Не в сети
Профиль  
 Добавлено: 2011-12-04 18:11 (спустя 29 минут)
Аватара пользователя
Стаж: 8 лет 1 месяц
Сообщений: 17
Спасибок: 144
Скорости!!!!!!!!!!!!! :du_ma_et:
Не в сети
Профиль  
 Добавлено: 2012-02-19 10:31 (спустя 2 месяца 14 дней)
Стаж: 7 лет 1 месяц
Сообщений: 18
Спасибок: 15
спасибо
:ya_hoo_oo:
Не в сети
Профиль  
 Добавлено: 2012-04-08 11:39 (спустя 1 месяц 18 дней)
Стаж: 8 лет 1 месяц
Сообщений: 2
Спасибок: 3
большое спасибо давно хотел в ХД качестве пересмотреть :)
Не в сети
Профиль  
 Добавлено: 2012-05-04 17:59 (спустя 26 дней)
Аватара пользователя
Стаж: 8 лет 10 месяцев
Сообщений: 3
скорости надо
Не в сети
Профиль  
 Добавлено: 2012-06-03 10:47 (спустя 29 дней)
Аватара пользователя
Стаж: 7 лет 3 месяца
Сообщений: 46
Спасибок: 157
Лайков: 1
Отличное качество! Ну а сама сага просто великая.
Не в сети
Профиль  
 Добавлено: 2012-06-23 11:18 (спустя 20 дней)
Стаж: 7 лет 7 месяцев
Сообщений: 15
Спасибок: 5
Сорри за вопрос, но не увидел. Есть ли английская дорожка? Именно под эту версию
Не в сети
Профиль  
 Добавлено: 2012-06-23 12:25 (спустя 1 час 6 минут)
Модератор релиз-группы
Аватара пользователя
Стаж: 9 лет 1 месяц
Возраст: 97
Сообщений: 11660
Спасибок: 6532
Лайков: 269

alex_garin:

Есть ли английская дорожка?
здесь нет
можно скачать
_________________
Изображение
Не в сети
Профиль  
 Добавлено: 2012-06-23 22:16 (спустя 9 часов)
Стаж: 7 лет 7 месяцев
Сообщений: 15
Спасибок: 5

Артурыч:

можно скачать

Спасибо
Не в сети
Профиль  
 Добавлено: 2012-08-11 08:58 (спустя 1 месяц 17 дней)
Стаж: 5 лет 7 месяцев
Сообщений: 9
Почти скачал :bra_vo: Спасибо :co_ol:
Не в сети
Профиль  
 Добавлено: 2012-11-05 19:11 (спустя 2 месяца 25 дней)
Аватара пользователя
Стаж: 7 лет 11 месяцев
Сообщений: 786
Спасибок: 25
Лайков: 9
:ya_hoo_oo: Спасибо большое и не уходите с раздачи
Не в сети
Профиль  
 Добавлено: 2012-11-09 22:46 (спустя 4 дня)
Стаж: 7 лет 1 месяц
Сообщений: 1
кто нить объяснит почему вместо второго эпизода вторая матрица?
Не в сети
Профиль  
 Добавлено: 2013-01-13 19:57 (спустя 2 месяца 3 дня)
Модератор релиз-группы
Аватара пользователя
Стаж: 9 лет 1 месяц
Возраст: 97
Сообщений: 11660
Спасибок: 6532
Лайков: 269

KorteZ:

вместо второго эпизода вторая матрица?
это великое колдунство, не иначе :hi_hi_hi:
Cкрытый текст
Изображение
Свернуть
_________________
Изображение
Не в сети
Профиль  
 Добавлено: 2013-06-25 13:46 (спустя 5 месяцев 11 дней)
Аватара пользователя
Стаж: 8 лет 2 месяца
Возраст: 24
Сообщений: 206
Спасибок: 477
Лайков: 20
Дубляж не тот, что обычно по ТВ :(
Не в сети
Профиль  
 Добавлено: 2013-10-07 16:01 (спустя 3 месяца 12 дней)
Аватара пользователя
Стаж: 5 лет 8 месяцев
Сообщений: 17
Проблема одна и очень большая: не хватает скорости!..
В остальном - Огромное спасибо!!!
Не в сети
Профиль  
 Добавлено: 2014-03-23 21:23 (спустя 5 месяцев 16 дней)
Стаж: 5 лет 10 месяцев
Сообщений: 1
Спасибо!! Но дайте скорости!!!!!!!!!!!!!!!!!!!!!!!! :bra_vo:
Не в сети
Профиль  
 Добавлено: 2014-10-06 23:33 (спустя 6 месяцев)
Аватара пользователя
Стаж: 8 лет 11 месяцев
Сообщений: 234
Спасибок: 239
Лайков: 2
Может подскажет кто, старые части саги - переизданные?
Не в сети
Профиль  
 Добавлено: 2015-02-23 14:30 (спустя 4 месяца 16 дней)
Стаж: 8 лет 1 месяц
Сообщений: 6
Артурыч
Поддайте скорости
Не в сети
Профиль  
 Добавлено: 2015-10-16 19:10 (спустя 7 месяцев)
Аватара пользователя
Стаж: 7 лет 1 месяц
Сообщений: 10
Спасибок: 9
Скрытая угроза без субтитров на Татуине
Не в сети
Профиль  
Начать новую темуОтветить на тему  [ Сообщений: 21 ] 
Вы не можете начинать темы
Вы не можете отвечать на сообщения
Вы не можете редактировать свои сообщения
Вы не можете удалять свои сообщения