Правила форума

  • В этом разделе создание новых тем Запрещено.
  • Для создания новых тем пользуйтесь Корневым разделом DVD и HD фильмы.
Начать новую темуОтветить на тему  [ Сообщений: 27 ] 
Торрент файл
Размер: 35.98 GB • Зарегистрирован: 5 лет 2 месяца • Статус: Проверено
Скачан: 363 раза • Желающих скачать: 0 • Поблагодарили: 144 раза
 Раздают: 3  |  0 KB/s  ]   Качают: 2  |  0 KB/s  ] 
Сообщения
 Добавлено: 2011-10-03 09:52
Аватара пользователя
Стаж: 9 лет
Возраст: 27
Сообщений: 1386
Спасибок: 16115
Лайков: 14
Изображение

Звездные войны: Эпизод 1 - Скрытая угроза / Star Wars: Episode I - The Phantom Menace
Изображение

Звездные войны: Эпизод 1 - Скрытая угроза / Star Wars: Episode I - The Phantom Menace

«У каждой саги есть начало»

Год выпуска: 1999
Страна: Изображение США
Жанр: фантастика, боевик, приключения
Продолжительность: 02:16:10
Перевод: Профессиональный (полное дублирование) + Оригинал + Субтитры (Русские, английские)

Режиссер: Джордж Лукас
Сценарий: Джордж Лукас
Продюсер: Рик МакКаллум, Джордж Лукас
Оператор: Дэвид Тэттерсолл
Композитор: Джон Уильямс

В ролях: Лиам Нисон, Юэн МакГрегор, Натали Портман, Джейк Ллойд, Иэн МакДайармид, Пернилла Аугуст, Оливер Форд Дэвис, Хью Куарши, Ахмед Бест, Энтони Дэниелс

Описание: Мирная и процветающая планета Набу. Торговая федерация, не желая платить налоги, вступает в прямой конфликт с королевой Амидалой, правящей на планете, что приводит к войне. На стороне королевы и республики в ней участвуют два рыцаря-джедая: учитель и ученик, Квай-Гон-Джин и Оби-Ван Кеноби…

kinopoisk.ru: 7.908 (28484)

Доп. информация
Бюджет: $115 000 000
Сборы в мире: + $493 229 257 = $924 317 558
Сборы в США: $431 088 301
Премьера (мир): 19 мая 1999
Премьера (РФ): 9 февраля 2012, «Двадцатый Век Фокс СНГ»
Релиз на DVD: 9 декабря 2010, «Двадцатый Век Фокс СНГ»
Рейтинг PG — Parental guidance suggested. Детям рекомендуется смотреть фильм с родителями
Изображение
Рекомендуется присутствие родителей. Некоторый материал, возможно, не подходит для детей. Данный рейтинг показывает, что оценённый фильм может содержать некоторые сцены, просмотр которых маленькими детьми мог бы не понравиться их родителям. Материал, который может присутствовать в фильме, должен быть объяснён и разобран с детьми прежде, чем им разрешают посетить фильм. Явные сексуальные сцены и сцены употребления наркотиков отсутствуют; нагота, если присутствует, то только очень ограниченно, ужас и насилие не превышают умеренного уровня.
Свернуть
Свернуть
Знаете ли вы, что...
* Первой в ходе съёмок была снята сцена разговора между Дарт Сидиусом и Дарт Молом.
* Сцена битвы на световых мечах между Дарт Молом и Оби-Ваном с Квай-Гоном снималась на протяжении месяца. Это первая схватка такого рода, в которой принимали участие более двух джедаев или ситхов.
* Звук трепещущих крыльев торговца Уотто был достигнут звукооператором Беном Берттом в результате открывания и закрывания обычного зонтика.
* До съёмок в роли королевы Амидалы Натали Портман не видела ни одного фильма из оригинальной трилогии «Звёздных войн».
* Натали Портман пропустила мировую премьеру «Скрытой угрозы» по причине подготовки к сессии в университете.
* София Коппола и Кира Найтли получили короткие роли служанок Падме в фильме. Фактически поразительное внешнее сходство Натали Портман и Киры Найтли стало залогом последующей актёрской карьеры последней.
* Вопреки распространённому мнению, в большинстве сцен королеву Амидалу под гримом играла не Натали Портман, игравшая Падме, а Кира Найтли.
* Из-за высокого роста Лайама Нисона декораторам пришлось потратить ещё 150 000 долларов на новые декорации, в которых актёр смог бы уместиться.
* На пресс-конференции, посвящённой выходу «Мести ситхов» на DVD, директор по анимации Роб Колман объявил, что готовится обновлённая версия «Скрытой угрозы», благодаря чему первый эпизод станет последним фильмом саги, в котором кукольного Йоду заменят генерированным при помощи цифровых технологий.
* В титрах Джабба Хатт, открывающий гонки на подах, обозначен «Джабба Хатт в роли самого себя». Одновременно в титрах не указывается, что Иэн Макдайармид играет Дарт Сидиуса.
* «Скрытая угроза» — единственный фильм «Звёздных войн», в котором представлена уникальная способность джедаев к ускорению.
* Передатчик (комлинк) Квай-Гон Джина представляет собой слегка модифицированную бритву «Жиллетт Сенсор Эксель».
* После прокрутки всех титров в конце фильма слышно зловещее дыхание Дарта Вейдера.
* Образы всех гунганов были созданы на движке Джар-Джар Бинкса.
* Во время битвы гунганов с войсками Федерации мелькает дроид с серийным номером «1138» на спине: это число входило в название первого полнометражного фильма Джорджа Лукаса, называвшегося «THX 1138». Один из кораблей, пролетающих над Корусантом за миг до разговора Дарт Сидиуса и Дарт Мола, идентичен «Дискавери» из «Космической одиссеи 2001 года». Спасательная капсула этого же корабля видна в сцене разговора между Квай-Гоном и Уотто на заднем плане среди прочих ржавых деталей в «лавке» Уотто на Татуине.
* В сцене заседания Галактического Сената можно разобрать несколько делегаций, в том числе вуки и группу инопланетян, напоминающих знаменитого E.T. из фильма Стивена Спилберга «Инопланетянин».
* В ранних версиях сценария планета королевы Амидалы называлась Утапау, но в итоге это название отошло к планете, где Оби-Ван сражается с генералом Гривусом в «Мести ситхов».
* Единственная сцена в фильме, в которой не используются визуальные эффекты — это сцена заполнения газом комнаты встреч в начале фильма.
* Во время съемок сражений Эван МакГрегор часто непроизвольно изображал звук светового меча.
* Изначально Мэйс Винду должен был быть инопланетянином.
* «Падме» с санскрита означает «лотос».
* Дарт Мол за весь фильм моргает всего пару раз. Это было вызвано тем, что сыгравшему его Рэю Парку было трудно моргать в контактных линзах, поэтому Парк предложил идею о злодее, который никогда не моргает. Имя «Джар-Джар» придумал сын Лукаса.
* На роль юного Анакина Скайуокера пробовались Хейли Джоэль Осмент и Майкл Ангарано.
Свернуть
Награды и номинации
Изображение
Оскар, 2000 год
Номинации (3):
* Лучший звук
* Лучший монтаж звука
* Лучшие визуальные эффекты

Изображение
Премия канала «MTV», 2000 год
Победитель (1):
* Лучшая экшн-сцена
Номинации (2):
* Лучшая драка
* Лучший злодей (Рэй Парк)
Изображение
Золотая малина, 2000 год
Победитель (1):
* Худшая мужская роль второго плана (Ахмед Бест)
Номинации (6):
* Худший фильм
* Худшая мужская роль второго плана (Джейк Ллойд)
* Худшая женская роль второго плана (София Коппола)
* Худший режиссер (Джордж Лукас)
* Худший сценарий
* Худшая экранная пара (Натали Портман, Джейк Ллойд)
Изображение
Британская академия, 2000 год
Номинации (2):
* Лучший звук
* Лучшие визуальные эффекты
Свернуть
MediaInfo
General
Complete name : Zvezdnye.Voiny.E.01.Skrytaya.Ugroza.1999.RUS.BDRip.720p.h264.AC3.-HQ-ViDEO.mkv
Format : Matroska
File size : 5.58 GiB
Duration : 2h 16mn
Overall bit rate : 5 864 Kbps
Movie name : Star Wars: Episode I - The Phantom Menace (1999)
Encoded date : UTC 2011-09-24 07:26:38
Writing application : mkvmerge v3.3.0 ('Language') built on Mar 24 2010 14:59:24
Writing library : libebml v0.8.0 + libmatroska v0.9.0

Video
ID : 1
Format : AVC
Format/Info : Advanced Video Codec
Format profile : High@L4.1
Format settings, CABAC : Yes
Format settings, ReFrames : 6 frames
Codec ID : V_MPEG4/ISO/AVC
Duration : 2h 16mn
Bit rate mode : Variable
Bit rate : 5 414 Kbps
Width : 1 280 pixels
Height : 544 pixels
Display aspect ratio : 2.35:1
Frame rate : 23.976 fps
Color space : YUV
Chroma subsampling : 4:2:0
Bit depth : 8 bits
Scan type : Progressive
Bits/(Pixel*Frame) : 0.317
Stream size : 5.04 GiB (90%)
Title : Encoded by GYN

Audio
ID : 2
Format : AC-3
Format/Info : Audio Coding 3
Mode extension : CM (complete main)
Codec ID : A_AC3
Duration : 2h 16mn
Bit rate mode : Constant
Bit rate : 448 Kbps
Channel(s) : 6 channels
Channel positions : Front: L C R, Side: L R, LFE
Sampling rate : 48.0 KHz
Bit depth : 16 bits
Compression mode : Lossy
Stream size : 436 MiB (8%)
Title : DUB
Language : Russian

Text #1
ID : 3
Format : UTF-8
Codec ID : S_TEXT/UTF8
Codec ID/Info : UTF-8 Plain Text
Title : Forced
Language : Russian

Text #2
ID : 4
Format : UTF-8
Codec ID : S_TEXT/UTF8
Codec ID/Info : UTF-8 Plain Text
Language : Russian

Text #3
ID : 5
Format : UTF-8
Codec ID : S_TEXT/UTF8
Codec ID/Info : UTF-8 Plain Text
Title : Forced
Language : English

Text #4
ID : 6
Format : UTF-8
Codec ID : S_TEXT/UTF8
Codec ID/Info : UTF-8 Plain Text
Language : English

Menu
00:00:00.000 : en:Chapter 00
00:00:21.104 : en:Chapter 01
00:01:52.737 : en:Chapter 02
00:07:55.349 : en:Chapter 03
00:09:55.970 : en:Chapter 04
00:11:18.761 : en:Chapter 05
00:13:24.178 : en:Chapter 06
00:14:49.805 : en:Chapter 07
00:17:14.241 : en:Chapter 08
00:20:40.948 : en:Chapter 09
00:22:25.302 : en:Chapter 10
00:25:12.886 : en:Chapter 11
00:29:32.812 : en:Chapter 12
00:31:41.482 : en:Chapter 13
00:35:51.732 : en:Chapter 14
00:40:48.571 : en:Chapter 15
00:44:16.320 : en:Chapter 16
00:52:04.579 : en:Chapter 17
00:55:03.842 : en:Chapter 18
00:58:27.921 : en:Chapter 19
01:02:27.702 : en:Chapter 20
01:05:33.012 : en:Chapter 21
01:10:06.911 : en:Chapter 22
01:11:17.940 : en:Chapter 23
01:16:20.951 : en:Chapter 24
01:18:08.100 : en:Chapter 25
01:20:26.363 : en:Chapter 26
01:24:18.178 : en:Chapter 27
01:26:44.782 : en:Chapter 28
01:29:54.722 : en:Chapter 29
01:31:02.415 : en:Chapter 30
01:33:08.541 : en:Chapter 31
01:37:21.418 : en:Chapter 32
01:39:06.315 : en:Chapter 33
01:42:33.730 : en:Chapter 34
01:44:41.566 : en:Chapter 35
01:46:19.247 : en:Chapter 36
01:48:07.731 : en:Chapter 37
01:50:24.951 : en:Chapter 38
01:56:47.667 : en:Chapter 39
01:59:13.062 : en:Chapter 40
02:00:31.390 : en:Chapter 41
02:01:21.315 : en:Chapter 42
02:02:23.377 : en:Chapter 43
02:03:56.971 : en:Chapter 44
02:05:15.132 : en:Chapter 45
02:06:25.995 : en:Chapter 46
02:07:23.177 : en:Chapter 47
02:08:28.992 : en:Chapter 48
02:09:53.535 : en:Chapter 49
Свернуть


Качество: BDRip 720
Формат: MKV
Видео: H.264; 1280x544; 5414 Kbps; 23.976 fps; 0.317 b/p
Аудио #1: AC3 Dolby Digital; 448.00 kbps; 5.1 Ch; 48 kHz (Профессиональный (полное дублирование))
Аудио #2: AC3; 448.00 kbps; 6 Ch; 48 kHz (Оригинал) Отдельно


Скриншоты

Изображение

Изображение

Изображение

Свернуть
Свернуть
Звездные войны: Эпизод 2 - Атака клонов / Star Wars: Episode II - Attack of the Clones
Изображение

Звездные войны: Эпизод 2 - Атака клонов / Star Wars: Episode II - Attack of the Clones

«Size matters not. Except on an IMAX Screen.»

Год выпуска: 2002
Страна: Изображение США
Жанр: фантастика, фэнтези, боевик, приключения
Продолжительность: 02:22:27
Перевод: Профессиональный (полное дублирование) + Оригинал + Субтитры (Русские, английские)

Режиссер: Джордж Лукас
Сценарий: Джордж Лукас, Джонатан Хейлс
Продюсер: Джордж Лукас, Рик МакКаллум
Оператор: Дэвид Тэттерсолл
Композитор: Джон Уильямс

В ролях: Юэн МакГрегор, Натали Портман, Хейден Кристенсен, Кристофер Ли, Сэмюэл Л. Джексон, Фрэнк Оз, Иэн МакДайармид, Пернилла Аугуст, Темуэра Моррисон, Дэниэл Логан

Описание: Действие разворачивается через 10 лет после событий, описанных в первом эпизоде знаменитой саги. Республика все глубже погружается в пучину противоречий и хаоса. Движение сепаратистов, представленное сотнями планет и могущественным альянсом корпораций, грозит стать новой угрозой для Галактики, с которой не смогут справиться даже джедаи.
Назревающий конфликт, заранее спланированный могущественными, но пока еще не разоблаченными силами, ведет к началу Клонических войн и к закату республики. Чтобы противостоять угрозе вселенских масштабов, Верховный канцлер Палпатин добивается консолидации власти в республике в своих руках и отдает приказ о создании республиканской армии для поддержки малочисленной группы джедаев в их борьбе с превосходящим противником.

kinopoisk.ru: 7.784 (25163)

Доп. информация
Бюджет: $115 000 000
Сборы в мире: + $338 721 588 = $649 398 328
Сборы в США: $310 676 740
Сборы в России: $5 258 522
Премьера (мир): 16 мая 2002
Премьера (РФ): 15 мая 2002, «Гемини Киномир»
Релиз на DVD: 9 декабря 2010, «Двадцатый Век Фокс СНГ»
Рейтинг PG — Parental guidance suggested. Детям рекомендуется смотреть фильм с родителями
Изображение
Рекомендуется присутствие родителей. Некоторый материал, возможно, не подходит для детей. Данный рейтинг показывает, что оценённый фильм может содержать некоторые сцены, просмотр которых маленькими детьми мог бы не понравиться их родителям. Материал, который может присутствовать в фильме, должен быть объяснён и разобран с детьми прежде, чем им разрешают посетить фильм. Явные сексуальные сцены и сцены употребления наркотиков отсутствуют; нагота, если присутствует, то только очень ограниченно, ужас и насилие не превышают умеренного уровня.
Свернуть
Свернуть
Знаете ли вы, что...
* Принцесса Амидала нажимает некую кнопку на пульте, чтобы ретранслировать сообщение Оби-Вана. В следующий момент она нажимает ту же кнопку, чтобы вызвать карту, показывающую местонахождение Оби-Вана.
* Инопланетный здоровяк в кабаке в разговоре с Оби-Ваном небрежно роняет фразу о «12 парсеках расстояния до планеты, где выращивают клонов». Преодолеть это расстояние даже со скоростью света можно лишь за 39 лет.
Свернуть
Награды и номинации
Изображение
Оскар, 2003 год
Номинации (1):
* Лучшие визуальные эффекты



Изображение
Премия канала «MTV», 2003 год
Победитель (1):
* Лучшая драка
Номинации (1):
* Лучшая экшн-сцена
* Лучший виртуальный персонаж — «Йода»
Изображение
Золотая малина, 2003 год
Победитель (2):
* Худшая мужская роль второго плана (Хейден Кристенсен)
* Худший сценарий
Номинации (5):
* Худший фильм
* Худшая женская роль второго плана (Натали Портман)
* Худший режиссер (Джордж Лукас)
* Худший римейк/сиквел
* Худшая экранная пара — «Натали Портман и Хейден Кристенсен»
Свернуть
MediaInfo
General
Complete name : Zvezdnye.Voiny.E.02.Ataka.Klonov.2002.RUS.BDRip.720p.h264.AC3.-HQ-ViDEO.mkv
Format : Matroska
File size : 5.58 GiB
Duration : 2h 22mn
Overall bit rate : 5 605 Kbps
Movie name : Star Wars: Episode II - Attack of the Clones (2002)
Encoded date : UTC 2011-09-25 08:45:34
Writing application : mkvmerge v3.3.0 ('Language') built on Mar 24 2010 14:59:24
Writing library : libebml v0.8.0 + libmatroska v0.9.0

Video
ID : 1
Format : AVC
Format/Info : Advanced Video Codec
Format profile : High@L4.1
Format settings, CABAC : Yes
Format settings, ReFrames : 6 frames
Codec ID : V_MPEG4/ISO/AVC
Duration : 2h 22mn
Bit rate mode : Variable
Bit rate : 5 155 Kbps
Width : 1 280 pixels
Height : 544 pixels
Display aspect ratio : 2.35:1
Frame rate : 23.976 fps
Color space : YUV
Chroma subsampling : 4:2:0
Bit depth : 8 bits
Scan type : Progressive
Bits/(Pixel*Frame) : 0.302
Stream size : 5.02 GiB (90%)
Title : Encoded by GYN

Audio
ID : 2
Format : AC-3
Format/Info : Audio Coding 3
Mode extension : CM (complete main)
Codec ID : A_AC3
Duration : 2h 22mn
Bit rate mode : Constant
Bit rate : 448 Kbps
Channel(s) : 6 channels
Channel positions : Front: L C R, Side: L R, LFE
Sampling rate : 48.0 KHz
Bit depth : 16 bits
Compression mode : Lossy
Stream size : 457 MiB (8%)
Title : DUB
Language : Russian

Text #1
ID : 3
Format : UTF-8
Codec ID : S_TEXT/UTF8
Codec ID/Info : UTF-8 Plain Text
Title : Forced
Language : Russian

Text #2
ID : 4
Format : UTF-8
Codec ID : S_TEXT/UTF8
Codec ID/Info : UTF-8 Plain Text
Language : Russian

Text #3
ID : 5
Format : UTF-8
Codec ID : S_TEXT/UTF8
Codec ID/Info : UTF-8 Plain Text
Title : Forced
Language : English

Text #4
ID : 6
Format : UTF-8
Codec ID : S_TEXT/UTF8
Codec ID/Info : UTF-8 Plain Text
Language : English

Menu
00:00:00.000 : en:Chapter 00
00:00:23.440 : en:Chapter 01
00:01:50.527 : en:Chapter 02
00:04:22.095 : en:Chapter 03
00:07:00.002 : en:Chapter 04
00:10:28.961 : en:Chapter 05
00:14:19.900 : en:Chapter 06
00:21:35.293 : en:Chapter 07
00:24:48.236 : en:Chapter 08
00:29:45.867 : en:Chapter 09
00:31:33.474 : en:Chapter 10
00:33:48.526 : en:Chapter 11
00:34:50.505 : en:Chapter 12
00:36:05.121 : en:Chapter 13
00:38:25.928 : en:Chapter 14
00:39:25.362 : en:Chapter 15
00:40:56.370 : en:Chapter 16
00:42:12.780 : en:Chapter 17
00:44:02.014 : en:Chapter 18
00:45:50.414 : en:Chapter 19
00:47:50.075 : en:Chapter 20
00:50:21.017 : en:Chapter 21
00:53:01.428 : en:Chapter 22
00:56:44.818 : en:Chapter 23
00:58:56.699 : en:Chapter 24
01:00:46.059 : en:Chapter 25
01:03:41.192 : en:Chapter 26
01:06:24.355 : en:Chapter 27
01:11:18.774 : en:Chapter 28
01:14:01.353 : en:Chapter 29
01:15:23.477 : en:Chapter 30
01:17:48.872 : en:Chapter 31
01:21:40.353 : en:Chapter 32
01:23:46.896 : en:Chapter 33
01:28:10.159 : en:Chapter 34
01:30:52.905 : en:Chapter 35
01:33:38.487 : en:Chapter 36
01:35:27.847 : en:Chapter 37
01:42:44.867 : en:Chapter 38
01:45:14.016 : en:Chapter 39
01:49:53.628 : en:Chapter 40
01:56:22.475 : en:Chapter 41
01:57:47.602 : en:Chapter 42
02:00:29.180 : en:Chapter 43
02:04:48.981 : en:Chapter 44
02:07:41.945 : en:Chapter 45
02:11:23.667 : en:Chapter 46
02:12:54.883 : en:Chapter 47
02:14:49.247 : en:Chapter 48
02:15:54.938 : en:Chapter 49
Свернуть


Качество: BDRip 720
Формат: MKV
Видео: H.264; 1280x544; 5155 Kbps; 23.976 fps; 0.302 b/p
Аудио #1: AC3 Dolby Digital; 448.00 kbps; 5.1 Ch; 48 kHz (Профессиональный (полное дублирование))
Аудио #2: AC3; 448.00 kbps; 6 Ch; 48 kHz (Оригинал) Отдельно


Скриншоты

Изображение

Изображение

Изображение

Свернуть
Свернуть
Звездные войны: Эпизод 3 - Месть Ситхов / Star Wars: Episode III - Revenge of the Sith
Изображение

Звездные войны: Эпизод 3 - Месть Ситхов / Star Wars: Episode III - Revenge of the Sith

«Сага окончена»

Год выпуска: 2005
Страна: Изображение США
Жанр: фантастика, фэнтези, боевик, приключения
Продолжительность: 02:20:05
Перевод: Профессиональный (полное дублирование) + Оригинал + Субтитры (Русские, английские))

Режиссер: Джордж Лукас
Сценарий: Джордж Лукас
Продюсер: Рик МакКаллум, Джордж Лукас
Оператор: Дэвид Тэттерсолл
Композитор: Джон Уильямс

В ролях: Юэн МакГрегор, Натали Портман, Хейден Кристенсен, Иэн МакДайармид, Сэмюэл Л. Джексон, Джимми Смитс, Фрэнк Оз, Энтони Дэниелс, Кристофер Ли, Киша Касл-Хьюз

Описание: Со времен, описанных во втором эпизоде, прошло 3 года. Энакин окончательно встает на темную сторону силы и превращается в Дарта Вейдера. Республика гибнет под ударами крепнущей Империи, Джедаи теряют контроль над галактикой, а Падме готовится к тому, чтобы стать матерью. Все эти события будут разворачиваться на фоне грандиозной битвы, знаменующей финал Клонических войн…

kinopoisk.ru: 8.020 (37405)

Доп. информация
Бюджет: $113 000 000
Сборы в мире: + $469 727 028 = $849 997 605
Сборы в США: $380 270 577
Сборы в России: $8 269 382
Премьера (мир): 15 мая 2005
Премьера (РФ): 19 мая 2005, «Гемини Киномир»
Релиз на DVD: 9 декабря 2010, «Двадцатый Век Фокс СНГ»
Рейтинг PG-13 — Parents strongly cautioned. Дети до 13 лет допускаются на фильм только с родителями
Изображение
Настоятельное предостережение родителям. Некоторый материал может быть неподходящим для детей до 13 лет. Данный рейтинг показывает, что оценённый фильм может быть неподходящим для детей. Родители должны быть особенно осторожны, разрешая своим маленьким детям просмотр. Грубое или продолжительное насилие отсутствует; сексуальная ориентация на наготу отсутствует; некоторые сцены употребления наркотиков могут присутствовать; можно услышать единичные употребления грубой сексуальной лексики.
Свернуть
Свернуть
Знаете ли вы, что...
* Перед началом съемок Джордж Лукас объявил, что данный фильм станет последним из серии «Звездные войны». Свои предыдущие планы по поводу создания трилогии трилогий Лукас опроверг. Таким образом, мы вряд ли увидим продолжение космической саги (7-ую, 8-ую и 9-ую части).
* Данный эпизод стал самым «черным» и кровавым из когда-либо выходивших под маркой сериала.
* Название картины «Месть Ситха» очень похоже на рабочее название 6-го эпизода «Месть Джедая». Как мы помним, итоговое название эпизода звучит так: «Возвращение Джедая».
* В отличие от предыдущих эпизодов «Месть Ситха» практически полностью снимался в студийных декорациях. Единственная натурная сцена была отснята еще в ходе работы над вторым эпизодом.
* Эту сцену Джордж Лукас, держа в голове наброски происходящего в третьем эпизоде, отснял в пустыне Туниса еще 3 года назад. В этой сцене Оби-Ван Кеноби доставляет юного Люка Скайвокера к его дядюшке и тетушке.
* Тем не менее, совсем отказаться от натурных съемок команде Лукаса не удалось. В ходе монтажа съемочная группа выезжала в Таиланд, Швейцарию и Китай. Актерам принимать участие в этих съемках не пришлось, так как были отсняты лишь природные ландшафты.
* Энтони Дэниелс и Кенни Бейкер являются единственными актерами, принявшими участие в съемках всех шести эпизодов. Фрэнк Оз, озвучивающий учителя Йоду, замыкает тройку лидеров — он принял участие в работе над пятью эпизодами. Что касается персонажей, то здесь пальму первенства безоговорочно удерживает Оби-Ван Кеноби, засветившийся во всех шести эпизодах. Его сыграли два разных актера (во второй трилогии — Эван МакГрегор).
* Актеры Эван МакГрегор и Хейден Кристенсен потратили около двух месяцев для подготовки к батальным сценам. Основное внимание было уделено искусству фехтования.
* Сэмюель Л. Джексон (Мейс Винду) знал, что его персонажу суждено погибнуть еще при подписании контракта. Джексон попросил лишь об одном одолжении: «Я хочу, чтобы мой персонаж погиб как настоящий герой, а не какой-то там жалкий панк». Джордж Лукас учел эти пожелания, и смерть Мейса получилась по-настоящему запоминающимся событием картины.
* Предприимчивый Джордж Лукас привык превращать в золото все, к чему прикасается. На официальном сайте Lucasfilm был организован платный сервис, позволяющий следить за съемочным процессом некоторых сцен посредством веб-камер, установленных в студийных павильонах.
* Кейша Кастл-Хьюз участвовала в съемках всего один день. За этот день актриса успела сыграть все сцены с её участием.
* В августе 2004 года в СМИ был распространен слух о том, что Джордж Лукас собирается снимать 7,8 и 9 эпизоды. Предпосылкой для данной информации стал тот факт, что работники Lucasfilm в принудительном порядке подписали соответствующее соглашение о неразглашении секретной информации о работе над эпизодом. Тем не менее, Лукас продолжает упрямо утверждать, что в его планах не значится работа над третьей трилогией.
* Гарри Олдман согласился озвучить Генерала Гривоса, однако так и не смог поработать под началами Лукаса. Так как Гарри является членом Гильдии Актеров, то он не имеет права работать вместе с актерами, не являющимися членами Гильдии.
* Роль капитана Антиллеса предполагалось отдать Денису Лоусону, исполнителю роли Уэджа Антиллеса в первой трилогии.
* Во время съемок на блестящем корпусе робота С-3PO отображался зеленый экран, на фоне которого велась большая часть работы. Впоследствии при помощи компьютера специалистам по монтажу пришлось кадр за кадром исправлять эти огрехи.
* Специально для роли в третьей картине трилогии актер Хейден Кристенсен набрал около 11 кг веса. Ему пришлось питаться около 6 раз в сутки.
* Около 22 лет пришлось ждать Питеру Мэйхью (исполнитель роли Чубаки) своего возвращения на широкие экраны. Именно столько времени разделяет последние части трилогий («Месть Ситхов» и «Возвращение Джедая).
* Костюм Дарта Вейдера действительно носит Хейден Кристенсен, а не какой-то абстрактный дублер. По просьбе Кристенсена костюм Дарта Вейдера был подготовлен заново с учетом особенностей строения тела актера.
* Учитывая достаточно большую разницу в росте между ним и Дэвидом Праузом (исполнителем роли Вейдера в первой трилогии) - около 12 см - камеру специально располагали таким образом, чтобы Дарт в исполнении Хейдена выглядел выше.
* Точно такой же прием использовали при съемках 5-го и 6-го эпизодов, когда во время батальных сцен Прауза подменял некий каскадер Боб Андерсон, также значительно уступающий в росте.
* Последняя битва с участием Мейса Винду проходит в трех огромных комнатах и включает в себя ровно 102 движения.
* Сцена, где группа сенаторов (включая Падме) планирует организовать Альянс, чтобы предотвратить получение канцлером ещё большей власти, была удалена: в них представлялась молодая Мон Мотму.
* В раннем сценарии Джордж Лукас предполагал появление 10-летнего Хана Соло, но сцены с ним не снимались.
* Все сцены с участием Кристофера Ли были отсняты за один день.
* В оригинале продолжительность фильма составляла около 4 часов, сцена битвы Графа Дуку с Энакином показана на 1/3 запланированного времени в эпизоде. Финальная битва длится около 13 минут, это самая длинная сцена в истории кинематографа.
* Мейс Винду - единственный персонаж саги, имеющий фиолетовый световой меч, актер Сэмюэль Джексон лично попросил Джорджа Лукаса о неординарном цвете меча.
* Несмотря на значительные потери в хронометраже при монтаже, режиссерская версия фильма так и не появилась, впрочем таковой не было и у остальных эпизодов саги; однако некоторые удаленные сцены фильма вошли в DVD-издание.
* Оби-Ван, сражаясь с генералом Гривусом, убивает его с помощью бластера. После этого он, с негодованием смотря на бластер, бормочет себе «Такой нецивилизованный». Это прямая ссылка на начало «Новой надежды», когда Оби-Ван описывая световой меч говорит: «…не такой неуклюжий и ненадежный как бластер. Изящное оружие, для более цивилизованного века». Во время начальной битвы, Энакин говорит: «Сейчас начнется веселье». Хан Соло произносит то же самое в похожей ситуации в «Новой надежде».
* Ник Гиллард, постановщик трюков, сыграл джедая Кина Драллига. Джереми Баллоч (Боба Фетт в оригинальной трилогии), сыграл роль капитана Колтона.
* Джордж Лукас появляется во время оперы на Корусанте, как синелицый барон Папанойда. Это первое появление Лукаса в саге. Его трое детей также сыграли камео: его сын, Джетт, стал Зеттом Джукасса, погибающим джедаем, который защищает Храм Джедаев от клонов; его дочь, Аманда, персонаж Терр Танеел, можно увидеть на голограмме системы безопасности; дочь Кэти, синекожая Чи Иквэй, которую можно увидеть, когда Палпатин, спасённый джедаями приходит в Сенат.
Свернуть
Награды и номинации
2 «Золотых сателлита» — за звук (Том Майерс, Кристофер Скарабозио, Энди Нелсон, Пол Бринкэт, Бен Бёрт, Мэтью Вуд — Tom Myers, Christopher Scarabosio, Andy Nelson, Paul Brincat, Ben Burt, Matthew Wood) и визуальные эффекты (Джон Нолл, Роджер Гайетт, Роб Коулмен, Брайан Джернард — John Knoll, Roger Guyett, Rob Coleman, Brian Gernard).

Изображение
Оскар, 2006 год
Номинации (1):
* Лучший грим



Изображение
Премия канала «MTV», 2006 год
Победитель (1):
* Лучший злодей (Хейден Кристенсен)
Номинации (2):
* Лучшая драка
* Лучший герой (Юэн МакГрегор)
Изображение
Золотая малина, 2006 год
Победитель (1):
* Худшая мужская роль второго плана (Хейден Кристенсен)



Изображение
Кинонаграды «MTV-Россия», 2006 год
Номинации (1):
* Лучший фильм на иностранном языке
Свернуть
MediaInfo
General
Complete name : Zvezdnye.Voiny.E.03.Mest.Sithov.2005.RUS.BDRip.720p.h264.AC3.-HQ-ViDEO.mkv
Format : Matroska
File size : 5.58 GiB
Duration : 2h 20mn
Overall bit rate : 5 700 Kbps
Movie name : Star Wars: Episode III - Revenge of the Sith (2005)
Encoded date : UTC 2011-09-26 07:31:42
Writing application : mkvmerge v3.3.0 ('Language') built on Mar 24 2010 14:59:24
Writing library : libebml v0.8.0 + libmatroska v0.9.0

Video
ID : 1
Format : AVC
Format/Info : Advanced Video Codec
Format profile : High@L4.1
Format settings, CABAC : Yes
Format settings, ReFrames : 6 frames
Codec ID : V_MPEG4/ISO/AVC
Duration : 2h 20mn
Bit rate mode : Variable
Bit rate : 5 250 Kbps
Width : 1 280 pixels
Height : 544 pixels
Display aspect ratio : 2.35:1
Frame rate : 23.976 fps
Color space : YUV
Chroma subsampling : 4:2:0
Bit depth : 8 bits
Scan type : Progressive
Bits/(Pixel*Frame) : 0.308
Stream size : 5.03 GiB (90%)
Title : Encoded by GYN

Audio
ID : 2
Format : AC-3
Format/Info : Audio Coding 3
Mode extension : CM (complete main)
Codec ID : A_AC3
Duration : 2h 20mn
Bit rate mode : Constant
Bit rate : 448 Kbps
Channel(s) : 6 channels
Channel positions : Front: L C R, Side: L R, LFE
Sampling rate : 48.0 KHz
Bit depth : 16 bits
Compression mode : Lossy
Stream size : 449 MiB (8%)
Title : DUB
Language : Russian

Text #1
ID : 3
Format : UTF-8
Codec ID : S_TEXT/UTF8
Codec ID/Info : UTF-8 Plain Text
Title : Forced
Language : Russian

Text #2
ID : 4
Format : UTF-8
Codec ID : S_TEXT/UTF8
Codec ID/Info : UTF-8 Plain Text
Language : Russian

Text #3
ID : 5
Format : UTF-8
Codec ID : S_TEXT/UTF8
Codec ID/Info : UTF-8 Plain Text
Language : English

Menu
00:00:00.000 : en:Chapter 00
00:00:23.523 : en:Chapter 01
00:01:50.068 : en:Chapter 02
00:08:28.132 : en:Chapter 03
00:11:23.349 : en:Chapter 04
00:18:33.737 : en:Chapter 05
00:23:40.460 : en:Chapter 06
00:27:37.697 : en:Chapter 07
00:29:12.959 : en:Chapter 08
00:33:18.913 : en:Chapter 09
00:35:45.434 : en:Chapter 10
00:36:47.997 : en:Chapter 11
00:38:21.465 : en:Chapter 12
00:40:17.456 : en:Chapter 13
00:41:18.601 : en:Chapter 14
00:42:41.058 : en:Chapter 15
00:48:01.587 : en:Chapter 16
00:50:20.517 : en:Chapter 17
00:52:24.933 : en:Chapter 18
00:53:58.026 : en:Chapter 19
00:56:26.466 : en:Chapter 20
01:00:56.277 : en:Chapter 21
01:01:56.546 : en:Chapter 22
01:05:26.047 : en:Chapter 23
01:07:40.598 : en:Chapter 24
01:09:06.976 : en:Chapter 25
01:10:52.998 : en:Chapter 26
01:15:19.223 : en:Chapter 27
01:19:15.250 : en:Chapter 28
01:20:37.457 : en:Chapter 29
01:24:20.597 : en:Chapter 30
01:27:56.521 : en:Chapter 31
01:29:57.391 : en:Chapter 32
01:33:40.406 : en:Chapter 33
01:36:39.460 : en:Chapter 34
01:38:35.534 : en:Chapter 35
01:41:24.369 : en:Chapter 36
01:42:57.004 : en:Chapter 37
01:48:18.783 : en:Chapter 38
01:50:59.444 : en:Chapter 39
01:52:44.007 : en:Chapter 40
01:54:22.855 : en:Chapter 41
01:56:54.924 : en:Chapter 42
02:02:20.875 : en:Chapter 43
02:03:32.863 : en:Chapter 44
02:05:19.637 : en:Chapter 45
02:07:37.107 : en:Chapter 46
02:08:57.062 : en:Chapter 47
02:12:04.958 : en:Chapter 48
02:13:47.352 : en:Chapter 49
Свернуть


Качество: BDRip 720
Формат: MKV
Видео: H.264; 1280x544; 5250 Kbps; 23.976 fps; 0.308 b/p
Аудио #1: AC3 Dolby Digital; 448.00 kbps; 5.1 Ch; 48 kHz (Профессиональный (полное дублирование))
Аудио #2: AC3; 448.00 kbps; 6 Ch; 48 kHz (Оригинал) Отдельно


Скриншоты

Изображение

Изображение

Изображение
Свернуть
Свернуть
Звездные войны: Эпизод 4 - Новая надежда / Star Wars: Episode IV - A New Hope
Изображение

Звездные войны: Эпизод 4 - Новая надежда / Star Wars: Episode IV - A New Hope

«Coming to your galaxy this summer.»

Год выпуска: 1977
Страна: Изображение США
Жанр: фантастика, фэнтези, боевик, приключения
Продолжительность: 02:04:44
Перевод: Профессиональный (полное дублирование) + Оригинал + Субтитры (Русские, английские)

Режиссер: Джордж Лукас
Сценарий: Джордж Лукас
Продюсер: Гари Кертц, Джордж Лукас, Рик МакКаллум
Оператор: Гилберт Тейлор
Композитор: Джон Уильямс

В ролях: Марк Хэмилл, Харрисон Форд, Кэрри Фишер, Питер Кашинг, Алек Гиннесс, Энтони Дэниелс, Кенни Бейкер, Питер Мейхью, Дэвид Праус, Джеймс Эрл Джонс

Описание: Татуин. Планета-пустыня. Уже постаревший рыцарь Джедай Оби Ван Кеноби спасает молодого Люка Скайуокера, когда тот пытается отыскать пропавшего дроида. С этого момента Люк осознает свое истинное назначение: он один из рыцарей Джедай. В то время как гражданская война охватила галактику, а войска повстанцев ведут бои против сил злого Императора, к Люку и Оби Вану присоединяется отчаянный пилот-наемник Хан Соло, и в сопровождении двух дроидов, R2D2 и C-3PO, этот необычный отряд отправляется на поиски предводителя повстанцев — принцессы Леи. Героям предстоит отчаянная схватка с устрашающим Дартом Вейдером — правой рукой Императора и его секретным оружием — «Звездой Смерти».

kinopoisk.ru: 7.975 (27838)

Доп. информация
Бюджет: $11 000 000
Сборы в мире: + $314 400 000 = $775 398 007
Сборы в США: $460 998 007
Премьера (мир): 25 мая 1977
Релиз на DVD: 9 декабря 2010, «Двадцатый Век Фокс СНГ»
Рейтинг PG — Parental guidance suggested. Детям рекомендуется смотреть фильм с родителями
Изображение
Рекомендуется присутствие родителей. Некоторый материал, возможно, не подходит для детей. Данный рейтинг показывает, что оценённый фильм может содержать некоторые сцены, просмотр которых маленькими детьми мог бы не понравиться их родителям. Материал, который может присутствовать в фильме, должен быть объяснён и разобран с детьми прежде, чем им разрешают посетить фильм. Явные сексуальные сцены и сцены употребления наркотиков отсутствуют; нагота, если присутствует, то только очень ограниченно, ужас и насилие не превышают умеренного уровня.
Свернуть
Свернуть
Знаете ли вы, что...
* «Vader» по-голландски означает «отец».
* Согласно исследованиям, звук истребителя TIE скомбинирован из рева молодого слона и звука автомобиля, мчащегося по мокрому шоссе.
* Работая над сценарием, Джордж Лукас консультировался с всемирно известным исследователем мифологии, Джозефом Кемпбеллом.
* Лукасу было сложно получить финансирование для этого фильма, большинство студий полагали, что никто не захочет смотреть это.
* Американской Гильдии Режиссеров (DGA) не понравилось, что в начале фильма не было обычных титров. Они «приказали» Лукасу перемонтировать фильм и добавить титры в начало. Лукас отказался, заявив, что это испортит завязку фильма. DGA оштрафовала Лукаса, который заплатил им и немедленно покинул DGA.
* Корабль «Millennium Falcon» был придуман Лукасом в закусочной: гамбургер с маслинкой показался удачной моделью для создания космичекого корабля.
* Все новое — это хорошо забытое старое: множество элементов «Звездных войн» позаимствованы из более ранних картин. Так, например, персонажи Оби-Ван Кеноби и дроиды C-3PO и R2-D2 весьма напоминают героев японского фильма «Kakushi toride no san akunin» (1958), где самурайский воин спасает принцессу при помощи двух мелких мошенников. Внешний вид дроида C-3PO был скопирован с робота из культового фильма Metropolis (1926). Финальный бой заимствован из «Dam Busters, The» (1954), но еще ближе он к аналогичной сцене в «633 Squadron» (1964). Финальная сцена чествования героев практически покадрово скопирована с «Triumph des Willens» (1934).
* Слово «Jedi» происходит от японского «Jidai Geki», что в переводе означает «историческая драма»: так в Японии назывались телесериалы о временах самурайских воинов. Лукас как-то упомянул в интервью, что смотрел «Jidai Geki», когда бывал в Японии, и ему понравилось это словечко.
* Вначале на роль принцессы Леи была взята Сисси Спейсек, но когда Кэрри Фишер отказалась сниматься обнаженной в «Кэрри» (1976), они обменялись ролями. Еще одним кандидатом на роль принцессы Леи была Джоди Фостер.
* Вначале на роль Хэна Соло приглашали Берта Рейнольдса, но он выпал из конкурса; также предлагались кандидатуры Ника Нолте и Кристофера Уокена.
* Номера эпизода и подзаголовка «Новая надежда» не было в первоначальной версии фильма. Они были добавлены позднее при повторном выпуске фильма, чтобы обозначить последовательность между первыми «Star Wars» и «Empire Strikes Back, The» (1980).
* Сцена вылета космической капсулы с корабля Леи — первая работа Industrial Light & Magic (ILM) — студии спецэффектов, созданной Лукасом специально для съемок этого фильма.
* Сцены на Татуине были сняты в Тунисе, где существует местечко под названием «Татакуин» («Tatahouine»). Некоторые интерьеры дома Люка снимались в гостинице Туниса, но его внешний вид — реально существующий дом в деревне Матмата, изобилующей пещерами и кратерами.
* Хэн и Люк «перемещают» Чубакку из тюремного блока 1138: ссылка на фильм «THX 1138» (1970), постановщиком которого был Джордж Лукас.
* Сцены с участием Люка и его друга Биггса были вырезаны из фильма. Биггс — молодой пилот, оставивший Имперскую Академию и примкнувший к Сопротивлению. Люк упоминает о нем, рассказывая дяде и тете о своем желании поступить в Академию; а сам Биггс появляется в финале фильма, во время нападения на Звезду Смерти — он был одним из пилотов Сопротивления, погибших в том бою.
* Во время сцены в мусорном отсеке Марк Хэмилл так долго задерживал дыхание, когда нырял под воду, что у него лопнул сосуд на лице. Последующие съемки делались только с одной стороны.
* На определенном периоде создания фильма будущие перспективы казались столь малообещающими, что было предложено удалить из него спецэффекты и превратить его в телесериал.
* Джордж Лукас начал работать над сценарием в 1974 году.
* На роль Хэна Соло пробовался Курт Рассел.
* Все сцены с космическими кораблями снимались при помощи сделанных вручную макетов. Для финальной сцены, с уничтожением Звезды смерти, так же был создан туннель, под размер макетов.
* Самые знаменитые роботы - R2-D2 и C-3PO - могли называться А2 и С3, но потом Джордж Лукас решил дать дроидам более полные имена. По словам режиссера, их имена - просто приятный на слух набор букв и чисел, который ничего не обозначает и никак не расшифровывается.
* В 1980 году, через три года после выхода первого фильма киноэпопеи «Звездные войны-IV: Новая надежда» (1977), были сделаны первые снимки спутника Сатурна Мимаса, который оказался очень похож на «Звезду Смерти» из фильма Джорджа Лукаса. Астрономы склонны полагать, что схожая вмятина на Мимасе - кратер, образовавшийся в результате столкновения небесного тела с огромным астероидом. Джордж Лукас никак не прокомментировал это сообщение.
* Персонаж Люк Скайуокер претерпел множество изменений, прежде чем стал таким, какой он есть. Сначала Джордж Лукас хотел сделать его девочкой. Потом подумывал о том, чтобы Люк был гномом. Согласно следующему варианту режиссера Скайуокер мог стать 60-летним генералом.
* Чубакка был смоделирован по образу и подобию собаки Лукаса, Индианы. Не только облик, но и имя этой собаки были прославлены в веках: в «Indiana Jones and the Last Crusade» (1989) отец Индианы Джонса проясняет тайну имени своего сына: «На самом деле его зовут Джонс, это нашу собаку звали Индианой». Отца Индианы звали Генри Джонс. Генри называл постоянно Индиану «младший», это означает, что его как и отца звали Генри, и об этом говорится в самом конце фильма.
* Специальный выпуск фильма имел хронометраж 125 минут.
* В самом конце съемок первой серии Звездных войн Марк попал в серьезную автокатастрофу, где сильно поранил лицо. Поэтому в некоторых заключительных эпизодах на общих планах снимали дублера, а на крупных можно видеть, что лицо актера немного отличается от того, каким оно было в начале – это последствия косметических операций.
Свернуть
Награды и номинации
Изображение
Премия канала «MTV», 1997 год
Победитель (1):
* За достижения на жизненном пути (Питер Мейхью)



Изображение
Британская академия, 1979 год
Победитель (2):
* Лучший звук
* Премия имени Энтони Эскуита за достижения в создании музыки к фильму
Номинации (4):
* Лучший фильм
* Лучшая работа художника-постановщика
* Лучшие костюмы
* Лучший монтаж
Изображение
Оскар, 1978 год
Победитель (7):
* Лучшие декорации
* Лучшие костюмы
* Лучший звук
* Лучший монтаж
* Лучшие визуальные эффекты
* Лучший оригинальный саундтрек
* Награда за особые достижения — «за звуковые эффекты»
Номинации (4):
* Лучший фильм
* Лучшая мужская роль второго плана (Алек Гиннесс)
* Лучший режиссер (Джордж Лукас)
* Лучший сценарий
Изображение
Золотой глобус, 1978 год
Победитель (1):
* Лучший саундтрек
Номинации (1):
* Лучший фильм (драма)
* Лучшая мужская роль второго плана (Алек Гиннесс)
* Лучший режиссер (Джордж Лукас)
Свернуть
MediaInfo
General
Complete name : Zvezdnye.Voiny.E.04.Novaya.Nadezhda.1977.RUS.BDRip .720p.h264.AC3.-HQ-ViDEO.mkv
Format : Matroska
File size : 5.58 GiB
Duration : 2h 4mn
Overall bit rate : 6 401 Kbps
Movie name : Star Wars (1977)
Encoded date : UTC 2011-09-27 05:53:03
Writing application : mkvmerge v3.3.0 ('Language') built on Mar 24 2010 14:59:24
Writing library : libebml v0.8.0 + libmatroska v0.9.0

Video
ID : 1
Format : AVC
Format/Info : Advanced Video Codec
Format profile : High@L4.1
Format settings, CABAC : Yes
Format settings, ReFrames : 6 frames
Codec ID : V_MPEG4/ISO/AVC
Duration : 2h 4mn
Bit rate mode : Variable
Bit rate : 5 951 Kbps
Width : 1 280 pixels
Height : 544 pixels
Display aspect ratio : 2.35:1
Frame rate : 23.976 fps
Color space : YUV
Chroma subsampling : 4:2:0
Bit depth : 8 bits
Scan type : Progressive
Bits/(Pixel*Frame) : 0.349
Stream size : 5.08 GiB (91%)
Title : Encoded by GYN

Audio
ID : 2
Format : AC-3
Format/Info : Audio Coding 3
Mode extension : CM (complete main)
Codec ID : A_AC3
Duration : 2h 4mn
Bit rate mode : Constant
Bit rate : 448 Kbps
Channel(s) : 6 channels
Channel positions : Front: L C R, Side: L R, LFE
Sampling rate : 48.0 KHz
Bit depth : 16 bits
Compression mode : Lossy
Stream size : 400 MiB (7%)
Title : DUB
Language : Russian

Text #1
ID : 3
Format : UTF-8
Codec ID : S_TEXT/UTF8
Codec ID/Info : UTF-8 Plain Text
Title : Forced
Language : Russian

Text #2
ID : 4
Format : UTF-8
Codec ID : S_TEXT/UTF8
Codec ID/Info : UTF-8 Plain Text
Language : Russian

Text #3
ID : 5
Format : UTF-8
Codec ID : S_TEXT/UTF8
Codec ID/Info : UTF-8 Plain Text
Title : Forced
Language : English

Text #4
ID : 6
Format : UTF-8
Codec ID : S_TEXT/UTF8
Codec ID/Info : UTF-8 Plain Text
Language : English
Свернуть


Качество: BDRip 720
Формат: MKV
Видео: H.264; 1280x544; 5951 Kbps; 23.976 fps; 0.349 b/p
Аудио #1: AC3 Dolby Digital; 448.00 kbps; 5.1 Ch; 48 kHz (Профессиональный (полное дублирование))
Аудио #2: AC3; 448.00 kbps; 6 Ch; 48 kHz (Оригинал) Отдельно


Скриншоты

Изображение

Изображение

Изображение

Свернуть
Свернуть
Звездные войны: Эпизод 5 - Империя наносит ответный удар / Star Wars: Episode V - The Empire Strikes Back
Изображение

Звездные войны: Эпизод 5 - Империя наносит ответный удар / Star Wars: Episode V - The Empire Strikes Back

«The battle continues...»

Год выпуска: 1980
Страна: Изображение США
Жанр: фантастика, фэнтези, боевик, приключения
Продолжительность: 02:07:21
Перевод: Профессиональный (полное дублирование) + Оригинал + Субтитры (Русские, английские)

Режиссер: Ирвин Кершнер
Сценарий: Ли Брэкетт, Лоуренс Кэздан, Джордж Лукас
Продюсер: Джим Блум, Гари Кертц, Джордж Лукас
Оператор: Питер Сушицки
Композитор: Джон Уильямс

В ролях: Марк Хэмилл, Харрисон Форд, Кэрри Фишер, Билли Ди Уильямс, Энтони Дэниелс, Дэвид Праус, Питер Мейхью, Кенни Бейкер, Фрэнк Оз, Алек Гиннесс

Описание: Борьба за Галактику обостряется в пятом эпизоде космической саги. Войска Императора начинают массированную атаку на повстанцев и их союзников.
Хан Соло и принцесса Лейя укрываются в Заоблачном Городе, в котором их и захватывает Дарт Вейдер, в то время как Люк Скайуокер находится на таинственной планете джунглей Дагобар.
Там Мастер — джедай Йода обучает молодого рыцаря навыкам обретения Силы. Люк даже не предполагает, как скоро ему придется воспользоваться знаниями старого Мастера: впереди битва с превосходящими силами Императора и смертельный поединок с Дартом Вейдером.

kinopoisk.ru: 7.993 (26417)

Доп. информация
Бюджет: $18 000 000
Сборы в мире: + $247 900 000 = $538 375 067
Сборы в США: $290 475 067
Премьера (мир): 17 мая 1980
Релиз на DVD: 9 декабря 2010, «Двадцатый Век Фокс СНГ»
Рейтинг PG — Parental guidance suggested. Детям рекомендуется смотреть фильм с родителями
Изображение
Рекомендуется присутствие родителей. Некоторый материал, возможно, не подходит для детей. Данный рейтинг показывает, что оценённый фильм может содержать некоторые сцены, просмотр которых маленькими детьми мог бы не понравиться их родителям. Материал, который может присутствовать в фильме, должен быть объяснён и разобран с детьми прежде, чем им разрешают посетить фильм. Явные сексуальные сцены и сцены употребления наркотиков отсутствуют; нагота, если присутствует, то только очень ограниченно, ужас и насилие не превышают умеренного уровня.
Свернуть
Свернуть
Знаете ли вы, что...
* Сцена, где Хана Соло замораживают имперские штурмовики, была очень длинной и комплексной, и снимать ее потребовалось много раз подряд. Почти в самом конце Лея говорит Хэну: «Я люблю тебя». Харрисон Форд слышал эту фразу уже так много раз, что он изменил заданную по сценарию реплику «Я тоже тебя люблю» на «Я знаю». Кершнер не захотел переснимать эту сцену, справедливо рассудив, что так даже гораздо лучше.
* Персонаж «Боба Фетт» ни разу не был упомянут по имени в фильме, только в титрах.
* В астероидной сцене один из астероидов на самом деле был ботинком. По слухам, Джордж Лукас заставил специалистов по эффектам переделывать эту сцену столько раз, что они обозлились и добавили туда ботинок.
* Секретность, окружавшая этот фильм, была настолько суровой, что Джордж Лукас регулярно получал рапорты об «утечках» информации через актеров. Лукас был настолько полон решимости сохранить концовку в секрете, что велел актеру Дэвиду Праузу, игравшему Дарта Вейдера, произнести реплику «Оби-Ван Кеноби — твой отец» (согласно другим источникам — «Оби-Ван убил твоего отца»), а позднее продублировал эту фразу иначе: «Я твой отец».
* Последующие сцены с вампой (снежной тварью) были вырезаны из окончательного варианта фильма. R2-D2 встретил эту тварь на базе Сопротивления, где она была убита охраной. В завершенном фильме медицинский дроид осматривает раны таунтауна, убитого вампой, и Принцесса Лея упоминает «тварь» во время обсуждения имперского зонда. Была отснята, но впоследствии вырезана сцена, где Хан, Лея и C-3PO бегут вдоль по коридору. Хан собирается войти в помещение со знаком на двери, но Лея предупреждает его, что «здесь держат этих тварей». Они бегут дальше, но перед этим C-3PO срывает предупреждающий знак со двери, надеясь, что туда войдут имперские штурмовики.
* Специальная версия фильма имеет хронометраж 127 минут.
Свернуть
Награды и номинации
Специальный «Оскар» за визуальные эффекты (Брайан Джонсон, Ричард Эдлунд, Деннис Мёрен, Брюс Николсон — Brian Johnson, Richard Edlund, Dennis Muren, Bruce Nicholson), «Грэмми» за музыку.

Изображение
Оскар, 1981 год
Победитель (2):
* Лучший звук
* Награда за особые достижения — «за визуальные эффекты»
Номинации (2):
* Лучшие декорации
* Лучший оригинальный саундтрек
Изображение
Золотой глобус, 1981 год
Номинации (1):
* Лучший саундтрек



Изображение
Британская академия, 1981 год
Победитель (1):
* Премия имени Энтони Эскуита за достижения в создании музыки к фильму
Номинации (2):
* Лучшая работа художника-постановщика
* Лучший звук
Свернуть
MediaInfo
General
Complete name : Zvezdnye.Voiny.E.05.Imperiya.Nanosit.Otvetnyi.Udar.1980.RUS.BDRip.720p.h264.AC3.-HQ-ViDEO.mkv
Format : Matroska
File size : 5.58 GiB
Duration : 2h 7mn
Overall bit rate : 6 270 Kbps
Movie name : Star Wars: Episode V - The Empire Strikes Back (1980)
Encoded date : UTC 2011-09-27 06:57:43
Writing application : mkvmerge v3.3.0 ('Language') built on Mar 24 2010 14:59:24
Writing library : libebml v0.8.0 + libmatroska v0.9.0

Video
ID : 1
Format : AVC
Format/Info : Advanced Video Codec
Format profile : High@L4.1
Format settings, CABAC : Yes
Format settings, ReFrames : 6 frames
Codec ID : V_MPEG4/ISO/AVC
Duration : 2h 7mn
Bit rate mode : Variable
Bit rate : 5 820 Kbps
Width : 1 280 pixels
Height : 544 pixels
Display aspect ratio : 2.35:1
Frame rate : 23.976 fps
Color space : YUV
Chroma subsampling : 4:2:0
Bit depth : 8 bits
Scan type : Progressive
Bits/(Pixel*Frame) : 0.341
Stream size : 5.07 GiB (91%)
Title : Encoded by GYN

Audio
ID : 2
Format : AC-3
Format/Info : Audio Coding 3
Mode extension : CM (complete main)
Codec ID : A_AC3
Duration : 2h 7mn
Bit rate mode : Constant
Bit rate : 448 Kbps
Channel(s) : 6 channels
Channel positions : Front: L C R, Side: L R, LFE
Sampling rate : 48.0 KHz
Bit depth : 16 bits
Compression mode : Lossy
Stream size : 408 MiB (7%)
Title : DUB
Language : Russian

Text #1
ID : 3
Format : UTF-8
Codec ID : S_TEXT/UTF8
Codec ID/Info : UTF-8 Plain Text
Title : Forced
Language : Russian

Text #2
ID : 4
Format : UTF-8
Codec ID : S_TEXT/UTF8
Codec ID/Info : UTF-8 Plain Text
Language : Russian

Text #3
ID : 5
Format : UTF-8
Codec ID : S_TEXT/UTF8
Codec ID/Info : UTF-8 Plain Text
Language : English
Свернуть


Качество: BDRip 720
Формат: MKV
Видео: H.264; 1 280x544; 5820 Kbps; 23.976 fps; 0.341 b/p
Аудио #1: AC3 Dolby Digital; 448.00 kbps; 5.1 Ch; 48 kHz (Профессиональный (полное дублирование))
Аудио #2: AC3; 448.00 kbps; 6 Ch; 48 kHz (Оригинал) Отдельно


Скриншоты

Изображение

Изображение

Изображение

Свернуть
Свернуть
Звездные войны: Эпизод 6 - Возвращение Джедая / Star Wars: Episode VI - Return of the Jedi
Изображение

Звездные войны: Эпизод 6 - Возвращение Джедая / Star Wars: Episode VI - Return of the Jedi

«The Saga Continues.»

Год выпуска: 1983
Страна: Изображение США
Жанр: фантастика, фэнтези, боевик, приключения
Продолжительность: 02:14:47
Перевод: Профессиональный (полное дублирование) + Оригинал + Субтитры (Русские, английские)

Режиссер: Ричард Маркуэнд
Сценарий: Лоуренс Кэздан, Джордж Лукас
Продюсер: Ховард Дж. Казанян, Рик МакКаллум, Джим Блум
Оператор: Алан Хьюм, Алек Миллз
Композитор: Джон Уильямс

В ролях: Марк Хэмилл, Харрисон Форд, Кэрри Фишер, Билли Ди Уильямс, Энтони Дэниелс, Питер Мейхью, Себастьян Шоу, Иэн МакДайармид, Фрэнк Оз, Джеймс Эрл Джонс

Описание: В заключительном шестом эпизоде «Звездных войн» Дарт Вейдер создает вторую «Звезду Смерти». Он объединяет все силы зла, чтобы с помощью этого смертоносного оружия нанести последний сокрушительный удар по повстанцам и их союзникам.
Люк Скайуокер вместе с принцессой Лейей и верными дроидами R2D2 и C-3PO отправляется спасать своего друга Хана Соло, который попал в плен к отвратительному Джаббе Хатту — могущественному повелителю преступников.
Повстанцы высаживаются на планету Эндор, чтобы оттуда вместе с Люком и его отрядом предпринять последнюю атаку на Имперский флот, атаку, от которой зависит судьба Галактики. В этом эпизоде Люк Скайуокер и Дарт Вейдер встречаются в последний раз… ибо из поединка между отцом и сыном живым выйдет только один…

kinopoisk.ru: 8.009 (26866)

Доп. информация
Бюджет: $32 500 000
Сборы в мире: + $165 800 000 = $475 106 177
Сборы в США: $309 306 177
Премьера (мир): 25 мая 1983
Релиз на DVD: 9 декабря 2010, «Двадцатый Век Фокс СНГ»
Рейтинг PG — Parental guidance suggested. Детям рекомендуется смотреть фильм с родителями
Изображение
Рекомендуется присутствие родителей. Некоторый материал, возможно, не подходит для детей. Данный рейтинг показывает, что оценённый фильм может содержать некоторые сцены, просмотр которых маленькими детьми мог бы не понравиться их родителям. Материал, который может присутствовать в фильме, должен быть объяснён и разобран с детьми прежде, чем им разрешают посетить фильм. Явные сексуальные сцены и сцены употребления наркотиков отсутствуют; нагота, если присутствует, то только очень ограниченно, ужас и насилие не превышают умеренного уровня.
Свернуть
Свернуть
Знаете ли вы, что...
* Сцены на «песчаной барже» Джаббы снимались в Юме, штат Аризона. У съемочной группы возникла проблема — как скрыться от 35 тысяч фанатов — энтузиастов, приехавших в пустыню на багги. В целях секретности создатели фильма заявили, что на самом деле здесь снимается фильм ужасов под названием «Печальный итог: Кошмар за пределами вашего воображения» («Blue Harvest: Horror beyond your imagination»), и даже нарядили всех членов съемочной группы в кепки и футболки с этим названием. Это было необходимо, поскольку даже забор из колючей проволоки и круглосуточная охрана не могли помешать отчаянным фанатам просочиться на съемочную площадку и сделать тайком несколько снимков.
* Первоначально сразу же после спасения Хана из плена Джаббы должна была последовать песчаная буря. Эту сцену удалили, поскольку она показалась излишней и очень сложной для съемок.
* Согласно сценарию, Лэндо Калриссиан должен был погибнуть при взрыве Звезды Смерти вместе с кораблем Хана Соло «Millennium Falcon». Но из-за отрицательных отзывов публики эта деталь была изменена. Обратите внимание на реплику Хана, когда он улетает на захваченном имперском корабле и бросает прощальный взгляд на «Millennium Falcon»: «У меня такое странное чувство, что я больше никогда его не увижу».
* Несколько эвоков говорят по-филлипински (на языке «тагалог»).
* По слухам, был отснят еще один, другой финал фильма, где состоялась свадьба Лейи и Хана Соло.
* Слово «эвок» — так зовут «местных» с Эндора, похожих на медвежат — ни разу не используется в самом фильме, только в титрах.
* Дарта Вейдера играют сразу трое людей — Дэвид Прауз был его телом (в доспехах), его голосом был Джеймс Эрл Джонс, а его лицом был Себастьян Шоу.
* Одна из песен, которую поют эвоки, звучит как «Det luktar flingor har». По-шведски это означает «чую, тут пахнет кашей».
* Неизвестно, было ли название «Месть Джедая» («Revenge of the Jedi») с самого начала поддельным, или же действительно было изменено в самый последний момент. Официальным объяснением для изменения названия было то, что «месть — это не по-джедайски», но для этого изменения был еще один резон: так было гораздо легче отследить пиратскую продукцию — по неправильному названию. На нескольких ранних плакатах фильм действительно называется «Месть Джедая» — теперь такой плакат стоит больших денег.
* В DVD, выпущенном в 2004 году, в финальном явлении Люку трех призраков-джедаев Себастьян Шоу заменен на Хайдена Кристенсена, которому на момент первого выхода фильма на экраны в 1983 году было 2 года.
* Джордж Лукас был очень недоволен тем, что в 1983 году президент США Рональд Рейган объявил Стратегическую оборонную инициативу и назвал ее «Звездные войны». В отместку режиссер дал вице-королю Торговой Федерации - жадному, трусливому и злому типу - имя Нут Ганрей. Нут переводится как «тритон». Ганрей - анаграмма фамилии Рейган, а также анаграмма игры слов: ray gun - с англ. «лучевое оружие»
* Актриса Кэрри Фишер (принцесса Лея) очень переживала, что ее героиня во всех трех частях киноэпопеи, где она появляется, ходит в длинных бесформенных одеждах, за которыми не видно ее фигуры. Джордж Лукас пошел Кэрри на уступку и в последнем фильме в сцене, когда Лея находится в плену у Джаббы Хатта, максимально оголил актрису.
Свернуть
Награды и номинации
Изображение
Оскар, 1984 год
Победитель (1):
* Награда за особые достижения — «за монтаж звуковых эффектов»
Номинации (4):
* Лучшие декорации
* Лучший звук
* Лучший монтаж звука
* Лучший оригинальный саундтрек
Изображение
Британская академия, 1984 год
Победитель (1):
* Лучшие визуальные эффекты
Номинации (3):
* Лучшая работа художника-постановщика
* Лучший звук
* Лучший грим
Свернуть
MediaInfo
General
Complete name : Zvezdnye.Voiny.E.06.Vozvraschenie.Dzhedaya.1983.RU S.BDRip.720p.h264.AC3.-HQ-ViDEO.mkv
Format : Matroska
File size : 5.58 GiB
Duration : 2h 14mn
Overall bit rate : 5 923 Kbps
Movie name : Star Wars: Episode VI - Return of the Jedi (1983)
Encoded date : UTC 2011-09-27 08:16:33
Writing application : mkvmerge v3.3.0 ('Language') built on Mar 24 2010 14:59:24
Writing library : libebml v0.8.0 + libmatroska v0.9.0

Video
ID : 1
Format : AVC
Format/Info : Advanced Video Codec
Format profile : High@L4.1
Format settings, CABAC : Yes
Format settings, ReFrames : 6 frames
Codec ID : V_MPEG4/ISO/AVC
Duration : 2h 14mn
Bit rate mode : Variable
Bit rate : 5 474 Kbps
Width : 1 280 pixels
Height : 544 pixels
Display aspect ratio : 2.35:1
Frame rate : 23.976 fps
Color space : YUV
Chroma subsampling : 4:2:0
Bit depth : 8 bits
Scan type : Progressive
Bits/(Pixel*Frame) : 0.321
Stream size : 5.04 GiB (90%)
Title : Encoded by GYN

Audio
ID : 2
Format : AC-3
Format/Info : Audio Coding 3
Mode extension : CM (complete main)
Codec ID : A_AC3
Duration : 2h 14mn
Bit rate mode : Constant
Bit rate : 448 Kbps
Channel(s) : 6 channels
Channel positions : Front: L C R, Side: L R, LFE
Sampling rate : 48.0 KHz
Bit depth : 16 bits
Compression mode : Lossy
Stream size : 432 MiB (8%)
Title : DUB
Language : Russian

Text #1
ID : 3
Format : UTF-8
Codec ID : S_TEXT/UTF8
Codec ID/Info : UTF-8 Plain Text
Title : Forced
Language : Russian

Text #2
ID : 4
Format : UTF-8
Codec ID : S_TEXT/UTF8
Codec ID/Info : UTF-8 Plain Text
Language : Russian

Text #3
ID : 5
Format : UTF-8
Codec ID : S_TEXT/UTF8
Codec ID/Info : UTF-8 Plain Text
Title : Forced
Language : English

Text #4
ID : 6
Format : UTF-8
Codec ID : S_TEXT/UTF8
Codec ID/Info : UTF-8 Plain Text
Language : English
Свернуть


Качество: BDRip 720
Формат: MKV
Видео: H.264; 1 280x544; 5 474 Kbps; 23.976 fps; 0.321 b/p
Аудио #1: AC3 Dolby Digital; 448.00 kbps; 5.1 Ch; 48 kHz (Профессиональный (полное дублирование))
Аудио #2: AC3; 448.00 kbps; 6 Ch; 48 kHz (Оригинал) Отдельно


Скриншоты

Изображение

Изображение

Изображение

Свернуть
Свернуть

Релиз: Изображение Раздача: Изображение
Не в сети
Профиль  
 Добавлено: 2011-10-03 11:36 (спустя 1 час 43 минуты)
Аватара пользователя
Стаж: 9 лет
Возраст: 27
Сообщений: 1386
Спасибок: 16115
Лайков: 14
дзержинские билайновцы добавляем ретрекер http://retracker.local/announce
Не в сети
Профиль  
 Добавлено: 2011-10-03 18:22 (спустя 6 часов)
Top-releaser
Аватара пользователя
Стаж: 8 лет 7 месяцев
Сообщений: 1286
Спасибок: 3420
Лайков: 7
Может её тоже в объявления? Не каждый может BD скачать :) Я к Вам взываю Иванишко :)
Не в сети
Профиль  
 Добавлено: 2011-10-05 11:19 (спустя 1 день 16 часов)
Модератор релиз-группы
Аватара пользователя
Стаж: 9 лет 1 месяц
Возраст: 97
Сообщений: 11660
Спасибок: 6533
Лайков: 269

Shamman:

Может её тоже в объявления?
И мою тоже и туда же

Shamman:

Я к Вам взываю Иванишко
я тоже !!!
:hi_hi_hi:
_________________
Изображение
Не в сети
Профиль  
 Добавлено: 2011-10-05 22:13 (спустя 10 часов)
Аватара пользователя
Стаж: 9 лет
Сообщений: 21
Спасибок: 821
Куда эту фиговину добовлять? http://retracker.local/announce
Не в сети
Профиль  
 Добавлено: 2011-10-05 22:25 (спустя 12 минут)
Top-releaser
Аватара пользователя
Стаж: 8 лет 7 месяцев
Сообщений: 1286
Спасибок: 3420
Лайков: 7

Tosh:

Куда эту фиговину добовлять? http://retracker.local/announce

Mihecl:

Shamman
Здравствуйте. У меня билайн волокно Скажите пожалуйста, как и где прописать ретрекеры, чтобы скачать звездные войны со скоростью 100 МВ?
Здравствуйте!! Если у Вас uTorrent то:
1. Щёлкните по торренту в который хотите прописать ретрекер правой кнопкой мыши.
Cкрытый текст
Изображение
Свернуть
2. Прописываете ретрекеры.
Cкрытый текст
Изображение
Свернуть
3. Жмём ок.
И чуть не забыл, между ретрекерами должна быть пустая строка, как на картинке. Иначе они не будут работать.
Не в сети
Профиль  
 Добавлено: 2011-10-05 22:42 (спустя 16 минут)
Аватара пользователя
Стаж: 9 лет
Сообщений: 21
Спасибок: 821
:bra_vo: 10мб пошло)
Не в сети
Профиль  
 Добавлено: 2011-10-05 22:47 (спустя 4 минуты)
Top-releaser
Аватара пользователя
Стаж: 8 лет 7 месяцев
Сообщений: 1286
Спасибок: 3420
Лайков: 7
В uTorrent 10Мб означает 80 Мбит, почти предел. Я максимум 12 выжимал. Не забывайте добавлять ретрекеры, и всё будет куллл!!!
Не в сети
Профиль  
 Добавлено: 2011-10-21 17:41 (спустя 15 дней)
Стаж: 8 лет 2 месяца
Сообщений: 37
Спасибок: 27
Люди добрые те кто скачал пожалуйста раздайте с нормальной скоростью! Совсем недавно качал со скоростью 600 килобайт а сейчас всего 15 килобайт. Что же это такое, давайте уважать друг друга. :(
Не в сети
Профиль  
 Добавлено: 2011-11-07 21:48 (спустя 17 дней)
Аватара пользователя
Стаж: 7 лет 3 месяца
Возраст: 29
Сообщений: 163
Спасибок: 9
Может кто-нибудь подскажет- 4,5,6 эпизоды в оригинале или с дурацкими вставками современной компьютерной графики?
_________________
Изображение
Изображение
Изображение
Не в сети
Профиль  
 Добавлено: 2011-11-07 22:04 (спустя 16 минут)
Top-releaser
Аватара пользователя
Стаж: 8 лет 7 месяцев
Сообщений: 1286
Спасибок: 3420
Лайков: 7

Shinji:

Может кто-нибудь подскажет- 4,5,6 эпизоды в оригинале или с дурацкими вставками современной компьютерной графики?
оригинал
Не в сети
Профиль  
 Добавлено: 2011-11-07 22:05 (спустя 31 секунда)
Модератор релиз-группы
Аватара пользователя
Стаж: 9 лет 1 месяц
Возраст: 97
Сообщений: 11660
Спасибок: 6533
Лайков: 269

Shinji:

4,5,6 эпизоды в оригинале или с дурацкими вставками современной компьютерной графики?
О как!!!
Всё снято на Татуине, на советские камеры , взятые Лукасом напрокат у Бондарчука
Cкрытый текст
:-D
Свернуть
_________________
Изображение
Не в сети
Профиль  
 Добавлено: 2011-11-07 22:08 (спустя 3 минуты)
Top-releaser
Аватара пользователя
Стаж: 8 лет 7 месяцев
Сообщений: 1286
Спасибок: 3420
Лайков: 7

Артурыч:

Shinji:

4,5,6 эпизоды в оригинале или с дурацкими вставками современной компьютерной графики?
О как!!!
Всё снято на Татуине, на советские камеры , взятые Лукасом напрокат у Бондарчука
Cкрытый текст
:-D
Свернуть
;;-))) Современная компьютерная графика чувака не устраивает. :-D

Добавлено спустя 3 минуты:
А если серьёзно, то версию с той вставкой делали фанаты энтузиасты не желающие смириться с тем что фильм был снят в 70-е года. В этом релизе используются оригинальные сцены, так что Shinji
качай смело.
Не в сети
Профиль  
 Добавлено: 2011-11-07 22:36 (спустя 27 минут)
Модератор релиз-группы
Аватара пользователя
Стаж: 9 лет 1 месяц
Возраст: 97
Сообщений: 11660
Спасибок: 6533
Лайков: 269

Shamman:

версию с той вставкой
а что за версия то ?
Не тв`шная ли, я смотрел, ничего отличного от vhs вроде не видел
_________________
Изображение
Не в сети
Профиль  
 Добавлено: 2011-11-08 08:30 (спустя 9 часов)
Аватара пользователя
Стаж: 7 лет 3 месяца
Возраст: 29
Сообщений: 163
Спасибок: 9

Shamman:

А если серьёзно, то версию с той вставкой делали фанаты энтузиасты не желающие смириться с тем что фильм был снят в 70-е года. В этом релизе используются оригинальные сцены, так что Shinji
качай смело.

Спасибо!
_________________
Изображение
Изображение
Изображение
Не в сети
Профиль  
 Добавлено: 2011-11-08 08:38 (спустя 8 минут)
Аватара пользователя
Стаж: 7 лет 3 месяца
Возраст: 29
Сообщений: 163
Спасибок: 9
Это лучший релиз ЗВ который я находил. По соотношению - размер\качество :co_ol:
_________________
Изображение
Изображение
Изображение
Не в сети
Профиль  
 Добавлено: 2011-11-08 08:43 (спустя 4 минуты)
Модератор релиз-группы
Аватара пользователя
Стаж: 9 лет 1 месяц
Возраст: 97
Сообщений: 11660
Спасибок: 6533
Лайков: 269

Shinji:

да че вы ржете
а чЁ запретишь ???
Ну показался ты весёлым , вот и улыбнулись :)
Да уж, не спросил несчастный Джордж что и как ему делать у профи из тырнетов, вот и попал под "раздачу" бедолага ;;-)))

p.s. кто то от камеди клаба с их звиздатыми кинами до слёз угорает, а кого то слеза пробивает от "А зори здесь тихие"... Ну ты понЕл, ведь не глупый, глупый бы не понЕл....
_________________
Изображение
Не в сети
Профиль  
 Добавлено: 2011-11-08 21:04 (спустя 12 часов)
Top-releaser
Аватара пользователя
Стаж: 8 лет 7 месяцев
Сообщений: 1286
Спасибок: 3420
Лайков: 7

Shinji:

Это лучший релиз ЗВ который я находил. По соотношению - размер\качество :co_ol:
Лучший в объявлениях прилеплен, простите за мою нескромность :-[
Не в сети
Профиль  
 Добавлено: 2011-11-09 12:23 (спустя 15 часов)
Аватара пользователя
Стаж: 7 лет 3 месяца
Возраст: 29
Сообщений: 163
Спасибок: 9

Shamman:

Shinji:

Это лучший релиз ЗВ который я находил. По соотношению - размер\качество :co_ol:
Лучший в объявлениях прилеплен, простите за мою нескромность :-[

Не ну там у тебя конечно крутая крутотень. Вне всяких сомнений. Но я потому и говорю по соотношению размер\качество(!) Все таки 246 гигов с моим интернетом...
_________________
Изображение
Изображение
Изображение
Не в сети
Профиль  
 Добавлено: 2011-11-11 19:22 (спустя 2 дня 6 часов)
Аватара пользователя
Стаж: 9 лет
Сообщений: 381
Спасибок: 939
Лайков: 8

Артурыч:

Shamman:

версию с той вставкой
а что за версия то ?
Не тв`шная ли, я смотрел, ничего отличного от vhs вроде не видел

в "Новой надежде" на скринах сцена с Джаббой в космопорте (ее нет на vhs)
значит это никак не чистый оригинал 1977 года, а "осовремененная" самим Дж. Лукасом версия
(он там и в Мосайсли натолкал "современных" пейзажей из "Призрачной угрозы")

а значит в шестом эпизоде на похоронах появляется тень Вейдера-Кристенсена, а на Вейдера-Шоу (на vhs),
что лично я считаю вопиющей несправедливостью по отношению к последнему
хотя для "поколения пепси", которое смотрит сагу 1-2-3-4-5-6, а не 4-5-6-1-2-3 оно может и логичнее :)


Последний раз редактировалось dim-us 2011-11-11 19:34, всего редактировалось 2 раз(а).
Не в сети
Профиль  
 Добавлено: 2011-11-11 19:26 (спустя 3 минуты)
Top-seeder
Аватара пользователя
Стаж: 8 лет 1 месяц
Возраст: 26
Сообщений: 17415
Спасибок: 316
Лайков: 45

dim-us:

а на Вейдера-Прауса
Девид Проуз без маски в фильме не показан. Там другой человек был, в титрах указан как Анакин Скайуокер
_________________
ИзображениеИзображение Изображение Взял смайл - ставь ©!
Cкрытый текст
Изображение
Свернуть
Не в сети
Профиль  
 Добавлено: 2011-11-11 19:36 (спустя 9 минут)
Аватара пользователя
Стаж: 9 лет
Сообщений: 381
Спасибок: 939
Лайков: 8

Ryzhakov:

dim-us:

а на Вейдера-Прауса
Девид Проуз без маски в фильме не показан. Там другой человек был, в титрах указан как Анакин Скайуокер

согласен, чуть напутал :)
это был Себастьян Шоу
Не в сети
Профиль  
 Добавлено: 2011-11-11 22:55 (спустя 3 часа)
Модератор
Аватара пользователя
Стаж: 9 лет
Сообщений: 3080
Спасибок: 4102

dim-us:

хотя для "поколения пепси", которое смотрит сагу 1-2-3-4-5-6, а не 4-5-6-1-2-3 оно может и логичнее
когда я пересматривал фильмы серии второй раз - я пересматривал их именно 1-2-3-4-5-6. Мне до сих пор кажется это наиболее логичным и по сюжету и по полноте картины. Совершенно не оглядываясь на спецэффекты и картинку.
_________________
Изображение
Наша жизнь - сумасшедшее шоу, наша гибель - финальный бугурт...
Чтобы тебя заметили Боги, надо быть впереди!

Мои раздачи на "NNTT.ORG" | Правила раздела "Кино" | Ветеринарный кабинет "Рыжий Кот"
Не в сети
Профиль  
 Добавлено: 2012-11-06 10:00 (спустя 11 месяцев)
Аватара пользователя
Стаж: 6 лет 5 месяцев
Сообщений: 138
Спасибок: 1118
Лайков: 1
Мега респект!
_________________
Изображение
Не в сети
Профиль  
 Добавлено: 2012-12-31 19:59 (спустя 1 месяц 25 дней)
Стаж: 4 года 10 месяцев
Сообщений: 24
Спасибок: 9
скорости подкиньте
Не в сети
Профиль  
 Добавлено: 2013-01-04 23:22 (спустя 4 дня)
Аватара пользователя
Стаж: 3 года 11 месяцев
Возраст: 35
Сообщений: 22
Спасибок: 255
классика, спасибо :co_ol: надо пересмотреть - качаю :dan_ser:
Не в сети
Профиль  
 Добавлено: 2013-01-10 15:10 (спустя 5 дней)
Аватара пользователя
Стаж: 7 лет 2 месяца
Сообщений: 7
Спасибок: 9
Почему нет скорость у меня?((((
Не в сети
Профиль  
Начать новую темуОтветить на тему  [ Сообщений: 27 ] 
Вы не можете начинать темы
Вы не можете отвечать на сообщения
Вы не можете редактировать свои сообщения
Вы не можете удалять свои сообщения