Начать новую темуОтветить на тему  [ Сообщений: 2 ] 
Торрент файл
Размер: 4.41 GB • Зарегистрирован: 11 дней • Статус: Проверено
Скачан: 23 раза • Желающих скачать: 0 • Поблагодарили: 19 раз
 Раздают: 5  |  0 KB/s  ]   Качают: 0  |  0 KB/s  ] 
Сообщения
 Добавлено: 2017-09-13 17:40
Top-releaser
Аватара пользователя
Стаж: 9 лет 6 месяцев
Сообщений: 549
Спасибок: 21753
Лайков: 23
Изображение

Пираты Карибского моря: Мертвецы не рассказывают сказки

Pirates of the Caribbean: Dead Men Tell No Tales




Год выпуска: 2017
Страна: США /Walt Disney Pictures, Jerry Bruckheimer Films, Infinitum Nihil
Жанр: Фэнтези, комедия, приключения
Продолжительность: 02:09:07
Перевод: Профессиональный (дублированный) Лицензия, Оригинал
Субтитры: русские (форсированные, полные), английские (полные, SDH)


Режиссёр: Хоаким Роннинг, Эспен Сандберг / Joachim Roenning, Espen Sandberg

В ролях: Джонни Депп, Хавьер Бардем, Джеффри Раш, Брентон Туэйтс, Кая Скоделарио, Кевин МакНэлли, Голшифте Фарахани, Дэвид Уэнэм,Стивен Грэм, Энгус Барнетт


Описание: Исчерпавший свою удачу капитан Джек Воробей обнаруживает, что за ним охотится его старый неприятель, ужасный капитан Салазар и его призрачные пираты. Они только что сбежали из Дьявольского треугольника и намерены уничтожить всех пиратов, включая Джека. Поможет спастись лишь могущественный артефакт — трезубец Посейдона, который дарует своему обладателю полный контроль над морями.


Качество: HQRip-AVC
Формат: MKV

Видео: 3995 Кбит/сек, 1152*480 (2,40:1), в 23,976 (24000/1001) кадра/сек, AVC

Аудио 1: 448 Кбит/сек, 48,0 КГц, 6 каналов, AC-3 - Дубляж
Аудио 2: 448 Кбит/сек, 48,0 КГц, 6 каналов, AC-3 - Оригинал

Изображение
MediaInfo

General
Unique ID : 239484583894889560077206902947154237335 (0xB42B0D9A346DB14CA95B0F38BC301797)
Complete name : C:\Users\User\Desktop\Pirates.of.the.Caribbean.Dead.Men.Tell.No.Tales.2017.BDRip-AVC.RUS.ENG..stalkerok.new-team.mkv
Format : Matroska
Format version : Version 4 / Version 2
File size : 4.41 GiB
Duration : 2 h 9 min
Overall bit rate : 4 894 kb/s
Movie name : Pirates of the Caribbean: Dead Men Tell No Tales (2017) (Rip by stalkerok)
Encoded date : UTC 2017-09-13 11:53:04
Writing application : mkvmerge v8.6.1 ('Flying') 64bit
Writing library : libebml v1.3.3 + libmatroska v1.4.4

Video
ID : 1
Format : AVC
Format/Info : Advanced Video Codec
Format profile : High@L4.1
Format settings, CABAC : Yes
Format settings, RefFrames : 13 frames
Codec ID : V_MPEG4/ISO/AVC
Duration : 2 h 9 min
Bit rate : 3 900 kb/s
Width : 1 152 pixels
Height : 480 pixels
Display aspect ratio : 2.40:1
Frame rate mode : Constant
Frame rate : 23.976 (24000/1001) FPS
Color space : YUV
Chroma subsampling : 4:2:0
Bit depth : 8 bits
Scan type : Progressive
Bits/(Pixel*Frame) : 0.294
Stream size : 3.52 GiB (80%)
Title : Pirates of the Caribbean: Dead Men Tell No Tales (2017) (Rip by stalkerok)
Writing library : x264 core 150 r2833kMod df79067
Encoding settings : cabac=1 / ref=13 / deblock=1:-3:-2 / analyse=0x3:0x133 / me=umh / subme=10 / psy=1 / fade_compensate=0.00 / psy_rd=1.00:0.00 / mixed_ref=1 / me_range=32 / chroma_me=1 / trellis=2 / 8x8dct=1 / cqm=0 / deadzone=21,11 / fast_pskip=0 / chroma_qp_offset=-2 / threads=12 / lookahead_threads=3 / sliced_threads=0 / nr=0 / decimate=1 / interlaced=0 / bluray_compat=0 / constrained_intra=0 / bframes=13 / b_pyramid=2 / b_adapt=2 / b_bias=0 / direct=3 / weightb=1 / open_gop=0 / weightp=2 / keyint=240 / keyint_min=23 / scenecut=40 / intra_refresh=0 / rc_lookahead=60 / rc=crf / mbtree=0 / crf=17.3000 / qcomp=0.65 / qpmin=0 / qpmax=69 / qpstep=4 / vbv_maxrate=50000 / vbv_bufsize=62500 / crf_max=0.0 / nal_hrd=none / filler=0 / ip_ratio=1.40 / pb_ratio=1.30 / aq=3:0.80
Default : Yes
Forced : No

Audio #1
ID : 2
Format : AC-3
Format/Info : Audio Coding 3
Format settings, Endianness : Big
Codec ID : A_AC3
Duration : 2 h 9 min
Bit rate mode : Constant
Bit rate : 448 kb/s
Channel(s) : 6 channels
Channel positions : Front: L C R, Side: L R, LFE
Sampling rate : 48.0 kHz
Frame rate : 31.250 FPS (1536 SPF)
Bit depth : 16 bits
Compression mode : Lossy
Stream size : 414 MiB (9%)
Language : Russian
Service kind : Complete Main
Default : Yes
Forced : No

Audio #2
ID : 3
Format : AC-3
Format/Info : Audio Coding 3
Format settings, Endianness : Big
Codec ID : A_AC3
Duration : 2 h 9 min
Bit rate mode : Constant
Bit rate : 448 kb/s
Channel(s) : 6 channels
Channel positions : Front: L C R, Side: L R, LFE
Sampling rate : 48.0 kHz
Frame rate : 31.250 FPS (1536 SPF)
Bit depth : 16 bits
Compression mode : Lossy
Stream size : 414 MiB (9%)
Language : English
Service kind : Complete Main
Default : No
Forced : No

Text #1
ID : 4
Format : UTF-8
Codec ID : S_TEXT/UTF8
Codec ID/Info : UTF-8 Plain Text
Title : forced
Language : Russian
Default : Yes
Forced : No

Text #2
ID : 5
Format : UTF-8
Codec ID : S_TEXT/UTF8
Codec ID/Info : UTF-8 Plain Text
Title : Blu-ray
Language : Russian
Default : No
Forced : No

Text #3
ID : 6
Format : UTF-8
Codec ID : S_TEXT/UTF8
Codec ID/Info : UTF-8 Plain Text
Language : English
Default : No
Forced : No

Text #4
ID : 7
Format : UTF-8
Codec ID : S_TEXT/UTF8
Codec ID/Info : UTF-8 Plain Text
Title : SDH
Language : English
Default : No
Forced : No

Menu
00:00:00.000 : en:Chapter 1
00:05:49.515 : en:Chapter 2
00:08:34.222 : en:Chapter 3
00:13:40.820 : en:Chapter 4
00:16:29.154 : en:Chapter 5
00:22:33.852 : en:Chapter 6
00:25:19.267 : en:Chapter 7
00:28:06.101 : en:Chapter 8
00:31:41.774 : en:Chapter 9
00:33:44.814 : en:Chapter 10
00:37:02.053 : en:Chapter 11
00:42:27.711 : en:Chapter 12
00:49:09.071 : en:Chapter 13
00:54:00.278 : en:Chapter 14
00:57:19.394 : en:Chapter 15
01:00:38.718 : en:Chapter 16
01:08:29.939 : en:Chapter 17
01:11:57.021 : en:Chapter 18
01:16:50.939 : en:Chapter 19
01:19:27.471 : en:Chapter 20
01:25:04.808 : en:Chapter 21
01:27:42.173 : en:Chapter 22
01:31:43.789 : en:Chapter 23
01:38:22.813 : en:Chapter 24
01:42:36.775 : en:Chapter 25
01:47:23.562 : en:Chapter 26
01:52:58.688 : en:Chapter 27
01:59:09.934 : en:Chapter 28


Свернуть
Скриншоты

Изображение
Изображение
Изображение
Изображение
Изображение
Свернуть
_________________
Изображение
Изображение
Не в сети
Профиль  
 Добавлено: 2017-09-16 16:08 (спустя 2 дня 22 часа)
Кинокомментатор
Аватара пользователя
Стаж: 9 лет 9 месяцев
Возраст: 42
Сообщений: 930
Спасибок: 77
Лайков: 128
А почему все делают скриншоты с самого начала фильмов? Типа для интриги ? ))
Не в сети
Профиль  
Начать новую темуОтветить на тему  [ Сообщений: 2 ] 
Вы не можете начинать темы
Вы не можете отвечать на сообщения
Вы не можете редактировать свои сообщения
Вы не можете удалять свои сообщения